1 сезон

1 сезон

iTunes

1

iTunes

Кинопоиск HD

iTunes

13

1 сезон

RePack

30

Deluxe

ВАЖНО

ИГРА 18+

pack

RePack

MK11
pack

Легкие деньги

RePack

jed

RePack

fifa19

RePack

RDR2

RePack

NEED FOR SPEED™ PAYBACK

4 сезон

9 сезон

Бесстыжие 9 сезон

Все сериалы

все сериалы на PB.wtf

RePack

FAR CRY 5
  
Magnet ссылка

Он, я и его друзья / You, Me and Dupree (Энтони Руссо, Джо Руссо) [2006 г., Романтическая комедия, BDRip, DUB (Rus) + MVO (Ukr) + Оригинал] piratbit.pw

Он, я и его друзья через торрент piratbit.pw

Размер: 2.19 GB | Добавлен: 8 лет 4 мес. назад | Торрент скачан:155 раз
Скачать  

10-01-2013 14:53 Он, я и его друзья Скачать торрент  

Он, я и его друзья / You, Me and Dupree
«Двое - компания. Дюпри - толпа.»

Год выпуска: 2006
Страна: США
Жанр: Романтическая комедия
Продолжительность: 01:49:24
Перевод: Дубляж + Профессиональный (многоголосый закадровый) - (Украинский - ТРК Украина) + Оригинал (Английский)

Режиссер: Энтони Руссо, Джо Руссо
Продюссер: Мэри Пэрент, Скотт Стубер, Оуэн Уилсон
Сценарий: Майкл ЛеСьер

Бюджет: $54 000 000

В ролях: Оуэн Уилсон, Кейт Хадсон, Мэтт Диллон, Майкл Дуглас, Сет Роген, Аманда Детмер, Ральф Тинг, Тодд Стэшвик, Билл Хэйдер, Лэнс Армстронг

Описание: Молодая пара наконец-то решает пожениться, правда, семейная жизнь у них не заладилась с самого первого дня — друг семьи Дюпри собрался немного пожить вместе с ними, правда, это «немного», похоже, слишком затянулось. Как же избавиться от незваного гостя?

Качество: BDRip (Исходник Blu-ray)
Формат: AVI
Видео кодек: XviD
Аудио кодек: AC3
Видео: 720х384, 23,976 fps, 1689 kbps, 0.255 bit/pixel
Аудио#1: 48 kHz, AC3 5.1, 384.00 kbps / Дубляж
Аудио#2: 48 kHz, AC3 5.1, 384.00 kbps / Профессиональный (многоголосый закадровый) - (Украинский - ТРК Украина)
Аудио#3: 48 kHz, AC3 5.1, 384.00 kbps / Оригинал (Английский)
&
Общее
Полное имя : E:Фильмы МYou, Me and Dupree.2006.BDRip.Rus.Ukr.Eng.avi
Формат : AVI
Формат/Информация : Audio Video Interleave
Профиль формата : OpenDML
Размер файла : 2,19 Гбайт
Продолжительность : 1 ч. 49 м.
Общий поток : 2864 Кбит/сек
Программа кодирования : VirtualDubModRus 1.5.10.2 (build 2542/release)
Библиотека кодирования : VirtualDubMod build 2542/release

Видео
Идентификатор : 0
Формат : MPEG-4 Visual
Профиль формата : Advanced Simple@L5
Параметр BVOP формата : 1
Параметр QPel формата : Нет
Параметр GMC формата : Без точки перехода
Параметр матрицы формата : Выборочная
Режим смешивания : Сжатый битовый поток
Идентификатор кодека : XVID
Идентификатор кодека/Подсказка : XviD
Продолжительность : 1 ч. 49 м.
Битрейт : 1689 Кбит/сек
Ширина : 720 пикселей
Высота : 384 пикселя
Соотношение сторон : 1,85:1
Частота кадров : 23,976 кадра/сек
Цветовое пространство : YUV
Субдискретизация насыщенности : 4:2:0
Битовая глубина : 8 бит
Тип развёртки : Прогрессивная
Метод сжатия : С потерями
Бит/(Пиксели*Кадры) : 0.255
Размер потока : 1,29 Гбайт (59%)
Библиотека кодирования : XviD 65

Аудио #1
Идентификатор : 1
Формат : AC-3
Формат/Информация : Audio Coding 3
Расширение режима : CM (complete main)
Параметр Endianness формата : Big
Идентификатор кодека : 2000
Продолжительность : 1 ч. 49 м.
Вид битрейта : Постоянный
Битрейт : 384 Кбит/сек
Каналы : 6 каналов
Расположение каналов : Front: L C R, Side: L R, LFE
Частота : 48,0 КГц
Битовая глубина : 16 бит
Метод сжатия : С потерями
Размер потока : 301 Мбайт (13%)
Выравнивание : Разделение по промежуткам
Продолжительность промежутка : 42 мс. (1,00 видеокадр)
Время предзагрузки промежутка : 500 мс.

Аудио #2
Идентификатор : 2
Формат : AC-3
Формат/Информация : Audio Coding 3
Расширение режима : CM (complete main)
Параметр Endianness формата : Big
Идентификатор кодека : 2000
Продолжительность : 1 ч. 49 м.
Вид битрейта : Постоянный
Битрейт : 384 Кбит/сек
Каналы : 6 каналов
Расположение каналов : Front: L C R, Side: L R, LFE
Частота : 48,0 КГц
Битовая глубина : 16 бит
Метод сжатия : С потерями
Задержка видео : 12 с.
Размер потока : 300 Мбайт (13%)
Выравнивание : Разделение по промежуткам
Продолжительность промежутка : 42 мс. (1,00 видеокадр)
Время предзагрузки промежутка : 500 мс.

Аудио #3
Идентификатор : 3
Формат : AC-3
Формат/Информация : Audio Coding 3
Расширение режима : CM (complete main)
Параметр Endianness формата : Big
Идентификатор кодека : 2000
Продолжительность : 1 ч. 49 м.
Вид битрейта : Постоянный
Битрейт : 384 Кбит/сек
Каналы : 6 каналов
Расположение каналов : Front: L C R, Side: L R, LFE
Частота : 48,0 КГц
Битовая глубина : 16 бит
Метод сжатия : С потерями
Размер потока : 301 Мбайт (13%)
Выравнивание : Разделение по промежуткам
Продолжительность промежутка : 42 мс. (1,00 видеокадр)
Время предзагрузки промежутка : 500 мс.


Он, я и его друзья скачать торрент


piratbit.pw



Скачать Он, я и его друзья через торрент http://i51.fastpic.ru/big/2013/0110/64/ec6d8d698f49d003f8bbb1b8a7e26664.jpg Скачать фильм Он, я и его друзья через торрент бесплантно в хорошем качестве Описание: Молодая пара наконец-то решает пожениться, правда, семейная жизнь у них не заладилась с самого первого дня — друг семьи Дюпри ... 9.8 10 4
Info! Золотая раздача, скачанное не засчитывается.
Торрент: Зарегистрирован [2013-01-10 14:53] · скачан: 155 раз
Статус: √ проверено
Размер: 2.19 GB
Как cкачать? Как скачать Он, я и его друзья через торрент | UTorrent

28-11-2019 20:33  

Отключить всю рекламу на сайте

    Дорогой пользователь! Огромная просьба, поблагодарите релизера, оцените раздачу и оставьте свои комментарий, если Вы скачали Он, я и его друзья через торрент бесплатно! Внесите свою лепту в развитие PiratBit!
    Комментировать посты могут только пользователи прошедшие не сложную регистрацию
    Показать сообщения:    

    Он, я и его друзья через торрент
    Скачать бесплатно Он, я и его друзья
    Он, я и его друзья скачать торрент
    Он, я и его друзья смотреть онлайн
    Cкачать фильм Он, я и его друзья бесплатно
    Он, я и его друзья скачать торрент в хорошем качестве
    Он, я и его друзья смотреть онлайн бесплатно в хорошем качестве


    Вы не можете начинать темы
    Вы не можете отвечать на сообщения
    Вы не можете редактировать свои сообщения
    Вы не можете удалять свои сообщения
    Вы не можете голосовать в опросах
    Вы не можете прикреплять файлы к сообщениям
    Вы можете скачивать файлы