1 сезон

1 сезон

iTunes

1

iTunes

Кинопоиск HD

iTunes

13

1 сезон

RePack

30

Deluxe

ВАЖНО

ИГРА 18+

pack

RePack

MK11
pack

Легкие деньги

RePack

jed

RePack

fifa19

RePack

RDR2

RePack

NEED FOR SPEED™ PAYBACK

4 сезон

9 сезон

Бесстыжие 9 сезон

Все сериалы

все сериалы на PB.wtf

RePack

FAR CRY 5
  
Magnet ссылка

Корпоративка / Изоляция / Severance (Кристофер Смит) [2006 г., комедия, триллер. ужасы, HDRip, Профессиональный + Оригинал] piratbit.pw

Корпоративка через торрент piratbit.pw

Размер: 1.45 GB | Добавлен: 8 лет 4 мес. назад | Торрент скачан:233 раза
Скачать  

02-01-2013 19:38 Корпоративка Скачать торрент  

Корпоративка / Изоляция / Severance
«Ничего себе поездочка».

Год выпуска: 2006
Страна: Великобритания, Германия
Жанр: комедия, триллер. ужасы
Продолжительность: 01:35:45
Перевод: Профессиональный (многоголосый, закадровый) + Оригинал (Английский)

Режиссер: Кристофер Смит
Продюссер: Джейсон Ньюмарк, Александра Арланго, Стив Кристиан
Сценарий: Джеймс Моран, Кристофер Смит

Бюджет: £5 000 000
Премьера в мире: 19 мая 2006

В ролях: Тоби Стивенс, Клоди Блейкли, Энди Найман, Бабу Сизей, Тим МакИннерни, Лора Харрис, Дэнни Дайер, Дэвид Гиллиам, Жюли Драйко, Юдит Виктор

Описание: 8 члeнов оружейной компании отправились в Вeнгрию для поддeржания комaнднoгo духa. Никто из них не предполагал, что байки о кровожадных военных преступниках, засевших в лесу, являются правдой.

Качество: HDRip
Формат: AVI
Видео кодек: XviD
Аудио кодек: AC3
Видео: 720х400, 23,976 fps, 1776 kbps, 0.257 bit/pixel
Аудио#1: 48 kHz, AC3 2.0, 192.00 kbps / Профессиональный (многоголосый, закадровый)
Аудио#2: 48 kHz, AC3 2.0, 192.00 kbps / Оригинал (Английский)
&
Общее
Полное имя : E:Фильмы МSeverance.2006.HDRip.avi
Формат : AVI
Формат/Информация : Audio Video Interleave
Размер файла : 1,45 Гбайт
Продолжительность : 1 ч. 35 м.
Общий поток : 2174 Кбит/сек
Программа кодирования : VirtualDubModRus 1.5.10.2 (build 2542/release)
Библиотека кодирования : VirtualDubMod build 2542/release

Видео
Идентификатор : 0
Формат : MPEG-4 Visual
Профиль формата : Advanced Simple@L5
Параметр BVOP формата : 1
Параметр QPel формата : Нет
Параметр GMC формата : Без точки перехода
Параметр матрицы формата : Выборочная
Режим смешивания : Сжатый битовый поток
Идентификатор кодека : XVID
Идентификатор кодека/Подсказка : XviD
Продолжительность : 1 ч. 35 м.
Битрейт : 1776 Кбит/сек
Ширина : 720 пикселей
Высота : 400 пикселей
Соотношение сторон : 16:9
Частота кадров : 23,976 кадра/сек
Цветовое пространство : YUV
Субдискретизация насыщенности : 4:2:0
Битовая глубина : 8 бит
Тип развёртки : Прогрессивная
Метод сжатия : С потерями
Бит/(Пиксели*Кадры) : 0.257
Размер потока : 1,19 Гбайт (82%)
Библиотека кодирования : XviD 65

Аудио #1
Идентификатор : 1
Формат : AC-3
Формат/Информация : Audio Coding 3
Расширение режима : CM (complete main)
Параметр Endianness формата : Big
Идентификатор кодека : 2000
Продолжительность : 1 ч. 35 м.
Вид битрейта : Постоянный
Битрейт : 192 Кбит/сек
Каналы : 2 канала
Расположение каналов : Front: L R
Частота : 48,0 КГц
Битовая глубина : 16 бит
Метод сжатия : С потерями
Размер потока : 131 Мбайт (9%)
Выравнивание : Разделение по промежуткам
Продолжительность промежутка : 42 мс. (1,00 видеокадр)
Время предзагрузки промежутка : 500 мс.
Заголовок : Профессиональный (многоголосый, закадровый)

Аудио #2
Идентификатор : 2
Формат : AC-3
Формат/Информация : Audio Coding 3
Расширение режима : CM (complete main)
Параметр Endianness формата : Big
Идентификатор кодека : 2000
Продолжительность : 1 ч. 35 м.
Вид битрейта : Постоянный
Битрейт : 192 Кбит/сек
Каналы : 2 канала
Расположение каналов : Front: L R
Частота : 48,0 КГц
Битовая глубина : 16 бит
Метод сжатия : С потерями
Размер потока : 131 Мбайт (9%)
Выравнивание : Разделение по промежуткам
Продолжительность промежутка : 42 мс. (1,00 видеокадр)
Время предзагрузки промежутка : 500 мс.
Заголовок : Оригинал (Английский)


Корпоративка / Изоляция скачать торрент


piratbit.pw



Скачать Корпоративка через торрент http://i52.fastpic.ru/big/2013/0102/61/fce6de706fd0c9997fbd0bb0b2239761.jpg Скачать фильм Корпоративка через торрент бесплантно в хорошем качестве Описание: 8 члeнов оружейной компании отправились в Вeнгрию для поддeржания комaнднoгo духa. Никто из них не предполагал, что байки о ... 10 10 1
Info! Золотая раздача, скачанное не засчитывается.
Торрент: Зарегистрирован [2013-01-02 19:38] · скачан: 233 раз
Статус: √ проверено
Размер: 1.45 GB
Как cкачать? Как скачать Корпоративка через торрент | UTorrent

% Раздел Тема Автор DL S | L
Фильмы 2006-2008 [ 2.18 GB ] Корпоративка / Изоляция / Severance [2006 BDRip] -=BIGBOSS=- Скачать
1 | 0

28-11-2019 20:33  

Отключить всю рекламу на сайте

03-01-2013 04:54 Корпоративка Скачать торрент  

Помню смотрел - улыбался... Покрайней мере, что-то в памяти зацепилось - а эт уже показатель (минимум для меня)! Кто намерен поднапрячь нервишки, дрожа от страха при просмотре данного "шедевра" - тому НЕ СЮДА... Смотри и угарай
Мне немного напомнило "Убойные каникулы". ИТОГО - к просмотру пригодно!+++!piratbit.pw



    Дорогой пользователь! Огромная просьба, поблагодарите релизера, оцените раздачу и оставьте свои комментарий, если Вы скачали Корпоративка через торрент бесплатно! Внесите свою лепту в развитие PiratBit!
    Комментировать посты могут только пользователи прошедшие не сложную регистрацию
    Показать сообщения:    

    Корпоративка через торрент
    Скачать бесплатно Корпоративка
    Корпоративка скачать торрент
    Корпоративка смотреть онлайн
    Cкачать фильм Корпоративка бесплатно
    Корпоративка скачать торрент в хорошем качестве
    Корпоративка смотреть онлайн бесплатно в хорошем качестве


    Вы не можете начинать темы
    Вы не можете отвечать на сообщения
    Вы не можете редактировать свои сообщения
    Вы не можете удалять свои сообщения
    Вы не можете голосовать в опросах
    Вы не можете прикреплять файлы к сообщениям
    Вы можете скачивать файлы