1 сезон

1 сезон

iTunes

1

iTunes

Кинопоиск HD

iTunes

13

1 сезон

RePack

30

Deluxe

ВАЖНО

ИГРА 18+

pack

RePack

MK11
pack

Легкие деньги

RePack

jed

RePack

fifa19

RePack

RDR2

RePack

NEED FOR SPEED™ PAYBACK

4 сезон

9 сезон

Бесстыжие 9 сезон

Все сериалы

все сериалы на PB.wtf

RePack

FAR CRY 5
  
Magnet ссылка

Однажды в Голливуде / What Just Happened (Барри Левинсон) [2008 г., Комедия, Драма, BDRip, DUB + Многоголосый (Ukr) + Оригинал] piratbit.pw

Однажды в Голливуде через торрент piratbit.pw

Размер: 1.45 GB | Добавлен: 8 лет 4 мес. назад | Торрент скачан:124 раза
Скачать  

02-01-2013 15:16 Однажды в Голливуде Скачать торрент  

Однажды в Голливуде / What Just Happened
«Здесь тебя легко сведут с ума»

Год выпуска: 2008
Страна: США
Жанр: Комедия, Драма
Продолжительность: 01:43:59
Перевод: Дубляж + Профессиональный (многоголосый закадровый) - (Украинский - ТРК"Украина") + Оригинал (Английский)

Режиссер: Барри Левинсон
Продюссер: Роберт Де Ниро, Барри Левинсон, Арт Линсон
Сценарий: Арт Линсон

Бюджет: $25 000 000
Премьера в мире: 19 января 2008

В ролях: Роберт Де Ниро, Брюс Уиллис, Шон Пенн, Джон Туртурро, Кристен Стюарт, Стэнли Туччи, Кэтрин Кинер, Робин Райт Пенн, Майкл Уинкотт, Лили Рэйб, Ари Барак, Мун Бладгуд, Мэрин Хинкл, Марк Иванир, Питер Джейкобсон, Брэндон Кинер, Пол Либер, Дэвид Перл, Уильям Рэгсдэйл, Тиффани Скотт, Дей Янг

Описание: Остроумная, самокритичная комедия о жизни и творчестве голливудских звезд. Знаменитый американский продюсер носится со своим незавершенным проектом, а Брюс Уиллис и Шон Пенн играют самих себя, да и ведут себя соответствующе... А вы знаете, каковы Пенн и Уиллис на площадке?

Качество: BDRip (Исходник BD Remux)
Формат: AVI
Видео кодек: XviD
Аудио кодек: AC3
Видео: 720х304, 23,976 fps,1405 kbps, 0.268 bit/pixel
Аудио#1: 48 kHz, AC3 2.0, 192.00 kbps / Дубляж
Аудио#2: 48 kHz, AC3 2.0, 192.00 kbps / Профессиональный (многоголосый закадровый) - (Украинский - ТРК"Украина")
Аудио#3: 48 kHz, AC3 2.0, 192.00 kbps / Оригинал (Английский)
&
Общее
Полное имя : E:Фильмы МWhat Just Happened.2008.BDRip.Rus.Ukr.Eng.avi
Формат : AVI
Формат/Информация : Audio Video Interleave
Размер файла : 1,45 Гбайт
Продолжительность : 1 ч. 43 м.
Общий поток : 2000 Кбит/сек
Программа кодирования : VirtualDubModRus 1.5.10.2 (build 2542/release)
Библиотека кодирования : VirtualDubMod build 2542/release

Видео
Идентификатор : 0
Формат : MPEG-4 Visual
Профиль формата : Advanced Simple@L5
Параметр BVOP формата : 1
Параметр QPel формата : Нет
Параметр GMC формата : Без точки перехода
Параметр матрицы формата : Выборочная
Режим смешивания : Сжатый битовый поток
Идентификатор кодека : XVID
Идентификатор кодека/Подсказка : XviD
Продолжительность : 1 ч. 43 м.
Битрейт : 1405 Кбит/сек
Ширина : 720 пикселей
Высота : 304 пикселя
Соотношение сторон : 2,35:1
Частота кадров : 23,976 кадра/сек
Цветовое пространство : YUV
Субдискретизация насыщенности : 4:2:0
Битовая глубина : 8 бит
Тип развёртки : Прогрессивная
Метод сжатия : С потерями
Бит/(Пиксели*Кадры) : 0.268
Размер потока : 1,02 Гбайт (70%)
Библиотека кодирования : XviD 65

Аудио #1
Идентификатор : 1
Формат : AC-3
Формат/Информация : Audio Coding 3
Расширение режима : CM (complete main)
Параметр Endianness формата : Big
Идентификатор кодека : 2000
Продолжительность : 1 ч. 43 м.
Вид битрейта : Постоянный
Битрейт : 192 Кбит/сек
Каналы : 2 канала
Расположение каналов : Front: L R
Частота : 48,0 КГц
Битовая глубина : 16 бит
Метод сжатия : С потерями
Размер потока : 143 Мбайт (10%)
Выравнивание : Разделение по промежуткам
Продолжительность промежутка : 42 мс. (1,00 видеокадр)
Время предзагрузки промежутка : 500 мс.
Заголовок : Дубляж

Аудио #2
Идентификатор : 2
Формат : AC-3
Формат/Информация : Audio Coding 3
Расширение режима : CM (complete main)
Параметр Endianness формата : Big
Идентификатор кодека : 2000
Продолжительность : 1 ч. 43 м.
Вид битрейта : Постоянный
Битрейт : 192 Кбит/сек
Каналы : 2 канала
Расположение каналов : Front: L R
Частота : 48,0 КГц
Битовая глубина : 16 бит
Метод сжатия : С потерями
Размер потока : 143 Мбайт (10%)
Выравнивание : Разделение по промежуткам
Продолжительность промежутка : 42 мс. (1,00 видеокадр)
Время предзагрузки промежутка : 500 мс.
Заголовок : Профессиональный (многоголосый закадровый) - (Украинский - ТРК"Украина")

Аудио #3
Идентификатор : 3
Формат : AC-3
Формат/Информация : Audio Coding 3
Расширение режима : CM (complete main)
Параметр Endianness формата : Big
Идентификатор кодека : 2000
Продолжительность : 1 ч. 43 м.
Вид битрейта : Постоянный
Битрейт : 192 Кбит/сек
Каналы : 2 канала
Расположение каналов : Front: L R
Частота : 48,0 КГц
Битовая глубина : 16 бит
Метод сжатия : С потерями
Размер потока : 143 Мбайт (10%)
Выравнивание : Разделение по промежуткам
Продолжительность промежутка : 42 мс. (1,00 видеокадр)
Время предзагрузки промежутка : 500 мс.
Заголовок : Оригинал (Английский)


Однажды в Голливуде скачать торрент


piratbit.pw



Скачать Однажды в Голливуде через торрент http://i51.fastpic.ru/big/2013/0102/b9/d013c3ba2451fdecd678e3456432cbb9.jpg Скачать фильм Однажды в Голливуде через торрент бесплантно в хорошем качестве Описание: Остроумная, самокритичная комедия о жизни и творчестве голливудских звезд. Знаменитый американский продюсер носится со своим ... 10 10 2
Info! Золотая раздача, скачанное не засчитывается.
Торрент: Зарегистрирован [2013-01-02 15:16] · скачан: 124 раз
Статус: √ проверено
Размер: 1.45 GB
Как cкачать? Как скачать Однажды в Голливуде через торрент | UTorrent

28-11-2019 20:33  

Отключить всю рекламу на сайте

    Дорогой пользователь! Огромная просьба, поблагодарите релизера, оцените раздачу и оставьте свои комментарий, если Вы скачали Однажды в Голливуде через торрент бесплатно! Внесите свою лепту в развитие PiratBit!
    Комментировать посты могут только пользователи прошедшие не сложную регистрацию
    Показать сообщения:    

    Однажды в Голливуде через торрент
    Скачать бесплатно Однажды в Голливуде
    Однажды в Голливуде скачать торрент
    Однажды в Голливуде смотреть онлайн
    Cкачать фильм Однажды в Голливуде бесплатно
    Однажды в Голливуде скачать торрент в хорошем качестве
    Однажды в Голливуде смотреть онлайн бесплатно в хорошем качестве


    Вы не можете начинать темы
    Вы не можете отвечать на сообщения
    Вы не можете редактировать свои сообщения
    Вы не можете удалять свои сообщения
    Вы не можете голосовать в опросах
    Вы не можете прикреплять файлы к сообщениям
    Вы можете скачивать файлы