1 сезон

1 сезон

iTunes

1

iTunes

Кинопоиск HD

iTunes

13

1 сезон

RePack

30

Deluxe

ВАЖНО

ИГРА 18+

pack

RePack

MK11
pack

Легкие деньги

RePack

jed

RePack

fifa19

RePack

RDR2

RePack

NEED FOR SPEED™ PAYBACK

4 сезон

9 сезон

Бесстыжие 9 сезон

Все сериалы

все сериалы на PB.wtf

RePack

FAR CRY 5
  
Magnet ссылка

Мария-Антуанетта / Marie Antoinette (София Коппола) [2006 г., драма, биография, история, BDRip, MVO R5 + AVO + Оригинал] piratbit.pw

Мария-Антуанетта через торрент piratbit.pw

Размер: 2.19 GB | Добавлен: 8 лет 4 мес. назад | Торрент скачан:201 раз
Скачать  

02-01-2013 13:07 Мария-Антуанетта Скачать торрент  

Мария-Антуанетта / Marie Antoinette
«Пусть едят пирожные»

Год выпуска: 2006
Страна: США, Франция, Япония
Жанр: драма, биография, история
Продолжительность: 02:02:34
Перевод: Профессиональный (многоголосый закадровый) R5 + Профессиональный (одноголосый закадровый) Ю.Немахов + Оригинал (Английский)

Режиссер: София Коппола
Продюссер: София Коппола, Росс Кац, Френсис Форд Коппола
Сценарий: София Коппола

Бюджет: $40 000 000
Премьера в мире: 24 мая 2006

В ролях: Кирстен Данст, Джейсон Шварцман, Джуди Дэвис, Рип Торн, Роуз Бирн, Азия Ардженто, Молли Шеннон, Ширли Хендерсон, Дэнни Хьюстон, Марианна Фэйтфулл

Описание: Блестящая и трагическая судьба французской королевы Марии-Антуанетты будет всегда изумлять и ужасать потомков. Беззаботное детство в семье отца, императора Австрии. Ранний брак в 15 лет — и с кем! — с наследником самого Людовика XV! Вступление на французский трон в 19 и полная бесконечных развлечений молодость среди роскоши Версаля. И, наконец, внезапная, ужасная смерть на гильотине под улюлюканье парижской черни. Историки говорят, что Мария-Антуанетта поплатилась головой за то, что ненавидела и не понимала простой народ. Но тогда придется признать, что эта остроумная и незаурядная женщина была примитивной стервой! У авторов данного фильма есть другая версия, которая призвана пролить свет на все темные места биографии самой знаменитой королевы в истории Франции…

Качество: BDRip (Исходник Blu-Ray Remux)
Формат: AVI
Видео кодек: XviD
Аудио кодек: AC3
Видео: 720х400, 24,000 fps, 1766 kbps, 0.256 bit/pixel
Аудио#1: 48 kHz, AC3 5.1, 384.00 kbps / Профессиональный (многоголосый закадровый) R5
Аудио#2: 48 kHz, AC3 2.0, 192.00 kbps / Авторский (одноголосый закадровый) Ю.Немахов
Аудио#3: 48 kHz, AC3 2.0, 192.00 kbps / Оригинал (Английский)
&
Общее
Полное имя : E:Фильмы МMarie Antoinette.2006.BDRip.2XRus.Eng.avi
Формат : AVI
Формат/Информация : Audio Video Interleave
Профиль формата : OpenDML
Размер файла : 2,19 Гбайт
Продолжительность : 2 ч. 2 м.
Общий поток : 2558 Кбит/сек
Программа кодирования : VirtualDubModRus 1.5.10.2 (build 2542/release)
Библиотека кодирования : VirtualDubMod build 2542/release

Видео
Идентификатор : 0
Формат : MPEG-4 Visual
Профиль формата : Advanced Simple@L5
Параметр BVOP формата : 1
Параметр QPel формата : Нет
Параметр GMC формата : Без точки перехода
Параметр матрицы формата : Выборочная
Режим смешивания : Сжатый битовый поток
Идентификатор кодека : XVID
Идентификатор кодека/Подсказка : XviD
Продолжительность : 2 ч. 2 м.
Битрейт : 1766 Кбит/сек
Ширина : 720 пикселей
Высота : 400 пикселей
Соотношение сторон : 16:9
Частота кадров : 24,000 кадра/сек
Цветовое пространство : YUV
Субдискретизация насыщенности : 4:2:0
Битовая глубина : 8 бит
Тип развёртки : Прогрессивная
Метод сжатия : С потерями
Бит/(Пиксели*Кадры) : 0.256
Размер потока : 1,51 Гбайт (69%)
Библиотека кодирования : XviD 65

Аудио #1
Идентификатор : 1
Формат : AC-3
Формат/Информация : Audio Coding 3
Расширение режима : CM (complete main)
Параметр Endianness формата : Big
Идентификатор кодека : 2000
Продолжительность : 2 ч. 2 м.
Вид битрейта : Постоянный
Битрейт : 384 Кбит/сек
Каналы : 6 каналов
Расположение каналов : Front: L C R, Side: L R, LFE
Частота : 48,0 КГц
Битовая глубина : 16 бит
Метод сжатия : С потерями
Размер потока : 337 Мбайт (15%)
Выравнивание : Разделение по промежуткам
Продолжительность промежутка : 42 мс. (1,00 видеокадр)
Время предзагрузки промежутка : 500 мс.
Заголовок : Профессиональный (многоголосый закадровый) R5

Аудио #2
Идентификатор : 2
Формат : AC-3
Формат/Информация : Audio Coding 3
Расширение режима : CM (complete main)
Параметр Endianness формата : Big
Идентификатор кодека : 2000
Продолжительность : 2 ч. 2 м.
Вид битрейта : Постоянный
Битрейт : 192 Кбит/сек
Каналы : 2 канала
Расположение каналов : Front: L R
Частота : 48,0 КГц
Битовая глубина : 16 бит
Метод сжатия : С потерями
Размер потока : 168 Мбайт (8%)
Выравнивание : Разделение по промежуткам
Продолжительность промежутка : 42 мс. (1,00 видеокадр)
Время предзагрузки промежутка : 500 мс.
Заголовок : Профессиональный (одноголосый закадровый) Ю.Немахов

Аудио #3
Идентификатор : 3
Формат : AC-3
Формат/Информация : Audio Coding 3
Расширение режима : CM (complete main)
Параметр Endianness формата : Big
Идентификатор кодека : 2000
Продолжительность : 2 ч. 2 м.
Вид битрейта : Постоянный
Битрейт : 192 Кбит/сек
Каналы : 2 канала
Расположение каналов : Front: L R
Частота : 48,0 КГц
Битовая глубина : 16 бит
Метод сжатия : С потерями
Размер потока : 168 Мбайт (8%)
Выравнивание : Разделение по промежуткам
Продолжительность промежутка : 42 мс. (1,00 видеокадр)
Время предзагрузки промежутка : 500 мс.
Заголовок : Оригинал (Английский)


Мария-Антуанетта скачать торрент


piratbit.pw



Скачать Мария-Антуанетта через торрент http://i54.fastpic.ru/big/2013/0102/b6/b0b24c3417ca77f1802779ebeea122b6.jpg Скачать фильм Мария-Антуанетта через торрент бесплантно в хорошем качестве Описание: Блестящая и трагическая судьба французской королевы Марии-Антуанетты будет всегда изумлять и ужасать потомков. Беззаботное ... 9 10 2
Info! Золотая раздача, скачанное не засчитывается.
Торрент: Зарегистрирован [2013-01-02 13:07] · скачан: 201 раз
Статус: √ проверено
Размер: 2.19 GB
Как cкачать? Как скачать Мария-Антуанетта через торрент | UTorrent

% Раздел Тема Автор DL S | L
Фильмы с авторской озвучкой [ 2.19 GB ] Бесприданница или Хозяйка Рублевки / Мария-Антуанетта / Marie Antoinette [2005 Смешной перевод HDRip] [AVO] killermax2013 Скачать
1 | 0
Фильмы [HD 720p, 1080p] (Хороший звук DUB, MVO) [ 6.41 GB ] Мария-Антуанетта / Marie Antoinette [2006 биография история BDRip 720p by msltel] MVO AVO msltel Скачать
1 | 0
Фильмы [HD 720p, 1080p] (Хороший звук DUB, MVO) [ 17.05 GB ] Мария-Антуанетта / Marie Antoinette [2006 биография история BDRip 1080p by msltel] MVO AVO msltel Скачать
1 | 0
Фильмы [HD 720p, 1080p] (Хороший звук DUB, MVO) [ 11.5 GB ] Мария-Антуанетта / Marie Antoinette [2006 биография история BDRip 1080p от _denis_100 / NNNB] MVO + AVO + Original + subs _denis_100 Скачать
1 | 0
Фильмы 2006-2008 [ 3.9 GB ] Мария-Антуанетта / Marie Antoinette [2006 биография история BDRip-AVC] MVO+AVO Ю.Немахов+Eng mihis Скачать
2 | 0

28-11-2019 20:33  

Отключить всю рекламу на сайте

    Дорогой пользователь! Огромная просьба, поблагодарите релизера, оцените раздачу и оставьте свои комментарий, если Вы скачали Мария-Антуанетта через торрент бесплатно! Внесите свою лепту в развитие PiratBit!
    Комментировать посты могут только пользователи прошедшие не сложную регистрацию
    Показать сообщения:    

    Мария-Антуанетта через торрент
    Скачать бесплатно Мария-Антуанетта
    Мария-Антуанетта скачать торрент
    Мария-Антуанетта смотреть онлайн
    Cкачать фильм Мария-Антуанетта бесплатно
    Мария-Антуанетта скачать торрент в хорошем качестве
    Мария-Антуанетта смотреть онлайн бесплатно в хорошем качестве


    Вы не можете начинать темы
    Вы не можете отвечать на сообщения
    Вы не можете редактировать свои сообщения
    Вы не можете удалять свои сообщения
    Вы не можете голосовать в опросах
    Вы не можете прикреплять файлы к сообщениям
    Вы можете скачивать файлы