1 сезон

1 сезон

iTunes

1

iTunes

Кинопоиск HD

iTunes

13

1 сезон

RePack

30

Deluxe

ВАЖНО

ИГРА 18+

pack

RePack

MK11
pack

Легкие деньги

RePack

jed

RePack

fifa19

RePack

RDR2

RePack

NEED FOR SPEED™ PAYBACK

4 сезон

9 сезон

Бесстыжие 9 сезон

Все сериалы

все сериалы на PB.wtf

RePack

FAR CRY 5
  
Magnet ссылка

Зомби! Зомби! Зомби! / Zombies! Zombies! Zombies! (Джейсон Мерфи) [2008 г., ужасы, комедия, DVDRip, VO] piratbit.pw

Зомби! Зомби! Зомби! через торрент piratbit.pw

Размер: 1.38 GB | Добавлен: 8 лет 4 мес. назад | Торрент скачан:141 раз
Скачать  

31-12-2012 09:14 Зомби! Зомби! Зомби! Скачать торрент  

Зомби! Зомби! Зомби! / Zombies! Zombies! Zombies!

Год выпуска: 2008
Страна: США
Жанр: ужасы, комедия
Продолжительность: 01:22:06
Перевод: Любительский одноголосый

Режиссер: Джейсон Мерфи
Продюссер: Энтони Стивен Джордано, Джейсон Мерфи, Кенни Бомонт
Сценарий: Энтони Стивен Джордано, Зак Кеннеди

Мировой рейтинг IMDB 4.10 (1 771)


В ролях: Lyanna Tumaneng, Джессика Бартон, Hollie Winnard, Шон Гарриман, Энтони Хэден, Valensky Sylvain, Джульетт Ривз, Лэндон Эшворт, Стефани Миллер, Кристал Дэвис

Описание: Наркотический эксперимент проходит не по плану и провоцирует появление кровожадных зомби. Небольшой группе ребят, заманенных в клуб под видом танцовщиков экзотических танцев, приходится с ними бороться. Благодаря своему остроумию и навыкам, они пытаются продержаться ночь, и молятся чтоб не стать жертвами плотоядных зомби...

Качество: DVDRip
Формат: AVI
Видео кодек: XviD
Аудио кодек: AC3
Видео: XviD, 720x400 , 29.970 fps, 1 990 Kbps
Аудио#1: Russian:Dolby AC3 48000Hz stereo 192Kbps
Аудио#2: English:Dolby AC3 48000Hz stereo 192Kbps


General
Complete name : H:киноZombies! Zombies! Zombies!2008.L1.DVDRip.1400MB.(R).avi
Format : AVI
Format/Info : Audio Video Interleave
Format profile : OpenDML
File size : 1.38 GiB
Duration : 1h 22mn
Overall bit rate : 2 395 Kbps
Writing application : Lavf54.16.104

Video
ID : 0
Format : MPEG-4 Visual
Format profile : Simple@L3
Format settings, BVOP : No
Format settings, QPel : No
Format settings, GMC : No warppoints
Format settings, Matrix : Default (H.263)
Codec ID : XVID
Codec ID/Hint : XviD
Duration : 1h 22mn
Bit rate : 1 990 Kbps
Width : 720 pixels
Height : 400 pixels
Display aspect ratio : 16:9
Frame rate : 29.970 fps
Color space : YUV
Chroma subsampling : 4:2:0
Bit depth : 8 bits
Scan type : Progressive
Compression mode : Lossy
Bits/(Pixel*Frame) : 0.231
Stream size : 1.14 GiB (83%)
Writing library : XviD 64

Audio #1
ID : 1
Format : AC-3
Format/Info : Audio Coding 3
Mode extension : CM (complete main)
Codec ID : 2000
Duration : 1h 22mn
Bit rate mode : Constant
Bit rate : 192 Kbps
Channel(s) : 2 channels
Channel positions : Front: L R
Sampling rate : 48.0 KHz
Bit depth : 16 bits
Compression mode : Lossy
Stream size : 113 MiB (8%)
Alignment : Aligned on interleaves
Interleave, duration : 32 ms (0.96 video frame)

Audio #2
ID : 2
Format : AC-3
Format/Info : Audio Coding 3
Mode extension : CM (complete main)
Codec ID : 2000
Duration : 1h 22mn
Bit rate mode : Constant
Bit rate : 192 Kbps
Channel(s) : 2 channels
Channel positions : Front: L R
Sampling rate : 48.0 KHz
Bit depth : 16 bits
Compression mode : Lossy
Stream size : 104 MiB (7%)
Alignment : Aligned on interleaves
Interleave, duration : 32 ms (0.96 video frame)


Зомби! Зомби! Зомби! (видео) скачать торрент


piratbit.pw



Скачать Зомби! Зомби! Зомби! через торрент https://pic1.kartinco.top/images/111/xsv3hbos8b.jpg Скачать фильм Зомби! Зомби! Зомби! через торрент бесплантно в хорошем качестве Описание: Наркотический эксперимент проходит не по плану и провоцирует появление кровожадных зомби. Небольшой группе ребят, заманенных в ... 10 10 1
Info! Золотая раздача, скачанное не засчитывается.
Торрент: Зарегистрирован [2012-12-31 09:14] · скачан: 141 раз
Статус: T временная
Размер: 1.38 GB
Как cкачать? Как скачать Зомби! Зомби! Зомби! через торрент | UTorrent

% Раздел Тема Автор DL S | L
T Фильмы (мультфильмы) cо спонсором показа (Новинки AVI/MKV) [ 2.91 GB ] Зомби в 17 / Zombie at 17 [2018 WEB-DL 720p] MVO ["Синема УС"] bober100 Скачать
1 | 0
T Фильмы (мультфильмы) cо спонсором показа (Новинки AVI/MKV) [ 1.37 GB ] Зомби в 17 / Zombie at 17 [2018 WEB-DLRip] MVO ["Синема УС"] bober100 Скачать
1 | 0
Ultra HD (UHD: 2K, 4K, 8K) — видео сверхвысокой чёткости [ 54.1 GB ] Гордость и предубеждение и зомби / Pride and Prejudice and Zombies [2015 UHD BDRemux 2160p] - [] sheker187 Скачать
1 | 0
# Фильмы (мультфильмы) cо спонсором показа (Новинки AVI/MKV) [ 3.74 GB ] Нападение южных жареных зомби / Attack of the Southern Fried Zombies [2017 BDRip 720p] MVO ["Синема УС"] bober100 Скачать
1 | 0
T Фильмы (мультфильмы) cо спонсором показа (Новинки AVI/MKV) [ 1.37 GB ] Нападение южных жареных зомби / Attack of the Southern Fried Zombies [2017 HDRip] MVO ["Синема УС"] bober100 Скачать
1 | 0
T Фильмы (мультфильмы) cо спонсором показа (Новинки AVI/MKV) [ 1.37 GB ] Зомби / Zombies [2018 мюзикл WEB-DLRip] MVO ["Синема УС"] bober100 Скачать
1 | 0
T Фильмы (мультфильмы) cо спонсором показа (Новинки AVI/MKV) [ 3.32 GB ] Зомби / Zombies [2018 мюзикл WEB-DL 720p] MVO ["Синема УС"] bober100 Скачать
1 | 0

28-11-2019 20:33  

Отключить всю рекламу на сайте

31-12-2012 11:06 Зомби! Зомби! Зомби! Скачать торрент  

Из-за 2 скриншота у меня появилось желание скачать этот фильмpiratbit.pw



31-12-2012 11:08 Зомби! Зомби! Зомби! Скачать торрент  

Из-за 2 скриншота у меня появилось желание скачать этот фильм

не один ти такойpiratbit.pw



    Дорогой пользователь! Огромная просьба, поблагодарите релизера, оцените раздачу и оставьте свои комментарий, если Вы скачали Зомби! Зомби! Зомби! через торрент бесплатно! Внесите свою лепту в развитие PiratBit!
    Комментировать посты могут только пользователи прошедшие не сложную регистрацию
    Показать сообщения:    

    Зомби! Зомби! Зомби! через торрент
    Скачать бесплатно Зомби! Зомби! Зомби!
    Зомби! Зомби! Зомби! скачать торрент
    Зомби! Зомби! Зомби! смотреть онлайн
    Cкачать фильм Зомби! Зомби! Зомби! бесплатно
    Зомби! Зомби! Зомби! скачать торрент в хорошем качестве
    Зомби! Зомби! Зомби! смотреть онлайн бесплатно в хорошем качестве


    Вы не можете начинать темы
    Вы не можете отвечать на сообщения
    Вы не можете редактировать свои сообщения
    Вы не можете удалять свои сообщения
    Вы не можете голосовать в опросах
    Вы не можете прикреплять файлы к сообщениям
    Вы можете скачивать файлы