1 сезон

1 сезон

iTunes

1

iTunes

Кинопоиск HD

iTunes

13

1 сезон

RePack

30

Deluxe

ВАЖНО

ИГРА 18+

pack

RePack

MK11
pack

Легкие деньги

RePack

jed

RePack

fifa19

RePack

RDR2

RePack

NEED FOR SPEED™ PAYBACK

4 сезон

9 сезон

Бесстыжие 9 сезон

Все сериалы

все сериалы на PB.wtf

RePack

FAR CRY 5
  
Magnet ссылка

Воины правосудия / Full Clip (Минк) [2006 г., Боевик, триллер, DVDRip, MVO] piratbit.pw

Воины правосудия через торрент piratbit.pw

Размер: 1.17 GB | Добавлен: 8 лет 4 мес. назад | Торрент скачан:96 раз
Скачать  

21-12-2012 04:54 Воины правосудия Скачать торрент  

Воины правосудия / Full Clip

Год выпуска: 2006
Страна: США
Жанр: Боевик, триллер
Продолжительность: 01:26:55
Перевод: Профессиональный многоголосый

Режиссер: Минк
Продюссер: Джейсон Бархидт, Престон Л. Холмс, Джоэнна Шоу
Сценарий: Кантц

Бюджет: $500 000
Премьера в мире: 23 марта 2006

MPAA: R - лицам до 17 лет обязательно присутствие взрослого
IMDb: 3.10 (367)
Кинопоиск: 6.357 28

В ролях: Шон Бэйкер, Баста Раймс, Бубба Смит, Иксзибит, Шакара Ледард, Марк Бун Джуниор, Вайклеф Жан, Джером Ро Брукс, Эллен Клегхорн, ДеРэй Дэвис, Дженнифер Экхолс, Николь Хильтц, Суюн Ким, Том ’Тайни’ Листер мл., Масаса Мойо, Бобби Дж. Томпсон, Даниэль Васинова, Рич Уильямс

Описание: Это история о парнях, имеющих дело с оружием, не с шестизарядными ковбойскими револьверами, а с верными девятимиллиметровыми пушками. Джошуа Поуп — бывший морпех, не утративший профессиональных навыков, полученных во время службы. Приехав в этот город, он хотел всего-навсего получить небольшое наследство, доставшееся ему от отца, но оказался втянутым в местные кровавые разборки. На помощь Поупу приходят бывшие сослуживцы, такие же крутые парни, как и он сам. Но годы меняют людей, и бывшие друзья могут оказаться теперь непримиримыми врагами.

Качество: DVDRip
Формат: AVI
Видео кодек: XviD
Аудио кодек: AC3
Видео: 720x416 (1.73:1), 25 fps, XviD build 46 ~1472 kbps avg, 0.20 bit/pixel
Аудио#1: 48 kHz, AC3 Dolby Digital, 3/2 (L,C,R,l,r) + LFE ch, ~448 kbps
Релиз от: сторонний ресурс





Общее
Полное имя : D:TorrentVoini.prvosudiya.2004.XviD.DVDRip.сторонний ресурс.avi
Формат : AVI
Формат/Информация : Audio Video Interleave
Размер файла : 1,17 Гбайт
Продолжительность : 1 ч. 26 м.
Общий поток : 1932 Кбит/сек
Название фильма : Full Clip (2006).Title2.DVDRip
Программа кодирования : Lavf52.17.0
Формат оригинала/Имя : Full Clip (2006)

Видео
Идентификатор : 0
Формат : MPEG-4 Visual
Профиль формата : Simple@L3
Параметр BVOP формата : Нет
Параметр QPel формата : Нет
Параметр GMC формата : Без точки перехода
Параметр матрицы формата : Default (H.263)
Идентификатор кодека : XVID
Идентификатор кодека/Подсказка : XviD
Продолжительность : 1 ч. 26 м.
Битрейт : 1473 Кбит/сек
Ширина : 720 пикс.
Высота : 416 пикс.
Соотношение сторон : 16:9
Частота кадров : 25,000 кадр/сек
Цветовое пространство : YUV
Подвыборка цветности : 4:2:0
Битовая глубина : 8 бит
Тип развёртки : Прогрессивная
Метод сжатия : С потерями
Бит/(Пиксели*Кадры) : 0.197
Размер потока : 916 Мбайт (76%)
Библиотека кодирования : XviD 1.1.2 (UTC 2006-11-01)

Аудио
Идентификатор : 1
Формат : AC-3
Формат/Информация : Audio Coding 3
Расширение режима : CM (complete main)
Идентификатор кодека : 2000
Продолжительность : 1 ч. 26 м.
Вид битрейта : Постоянный
Битрейт : 448 Кбит/сек
Каналы : 6 каналов
Расположение каналов : Front: L C R, Side: L R, LFE
Частота : 48,0 КГц
Битовая глубина : 16 бит
Метод сжатия : С потерями
Размер потока : 279 Мбайт (23%)
Выравнивание : Соединение по промежуткам
Продолжительность промежутка : 32 мс. (0,80 видеокадр)

piratbit.pw



Скачать Воины правосудия через торрент https://pic1.kartinco.top/images/111/5v3je57bl3.jpg Скачать фильм Воины правосудия через торрент бесплантно в хорошем качестве Описание: Это история о парнях, имеющих дело с оружием, не с шестизарядными ковбойскими револьверами, а с верными девятимиллиметровыми ... 8 10 2
Info! Золотая раздача, скачанное не засчитывается.
Торрент: Зарегистрирован [2012-12-21 04:54] · скачан: 96 раз
Статус: √ проверено
Размер: 1.17 GB
Как cкачать? Как скачать Воины правосудия через торрент | UTorrent

28-11-2019 20:33  

Отключить всю рекламу на сайте

21-12-2012 08:50 Воины правосудия Скачать торрент  

ужас, бюджет впечатляетpiratbit.pw



21-12-2012 09:19 Воины правосудия Скачать торрент  

losypotam писал(а):

ужас, бюджет впечатляет

Мда уж. Многовато для такого фильма.piratbit.pw



21-12-2012 13:45 Воины правосудия Скачать торрент  

да всяко больше бюджет, чем у "русская комедия" - галустянко и в фильмах с бюджетом в 100 тыс на всех снимается.piratbit.pw



    Дорогой пользователь! Огромная просьба, поблагодарите релизера, оцените раздачу и оставьте свои комментарий, если Вы скачали Воины правосудия через торрент бесплатно! Внесите свою лепту в развитие PiratBit!
    Комментировать посты могут только пользователи прошедшие не сложную регистрацию
    Показать сообщения:    

    Воины правосудия через торрент
    Скачать бесплатно Воины правосудия
    Воины правосудия скачать торрент
    Воины правосудия смотреть онлайн
    Cкачать фильм Воины правосудия бесплатно
    Воины правосудия скачать торрент в хорошем качестве
    Воины правосудия смотреть онлайн бесплатно в хорошем качестве


    Вы не можете начинать темы
    Вы не можете отвечать на сообщения
    Вы не можете редактировать свои сообщения
    Вы не можете удалять свои сообщения
    Вы не можете голосовать в опросах
    Вы не можете прикреплять файлы к сообщениям
    Вы можете скачивать файлы