1 сезон

1 сезон

iTunes

1

iTunes

Кинопоиск HD

iTunes

13

1 сезон

RePack

30

Deluxe

ВАЖНО

ИГРА 18+

pack

RePack

MK11
pack

Легкие деньги

RePack

jed

RePack

fifa19

RePack

RDR2

RePack

NEED FOR SPEED™ PAYBACK

4 сезон

9 сезон

Бесстыжие 9 сезон

Все сериалы

все сериалы на PB.wtf

RePack

FAR CRY 5
  
Magnet ссылка

Мы - легенды / Seuls Two (Рамзи Бедиа, Эрик Жюдор) [2008 г., комедия, HDRip, DUB + Профессиональный двухголосый + Оригинал] piratbit.pw

Мы - легенды через торрент piratbit.pw

Размер: 2.06 GB | Добавлен: 8 лет 4 мес. назад | Торрент скачан:444 раза
Скачать  

13-12-2012 21:51 Мы - легенды Скачать торрент  

Мы - легенды / Seuls Two
«Два нуля снова в деле»

Год выпуска: 2008
Страна: Франция
Жанр: комедия
Продолжительность: 01:36:53
Перевод: Дубляж + Профессиональный (двухголосый закадровый) + Оригинал

Режиссер: Рамзи Бедиа, Эрик Жюдор
Продюссер: Ален Аттал
Сценарий: Эрик Жюдор, Рамзи Бедиа, Лайонел Дутемпл

Премьера в мире: 25 июня 2008

В ролях: Эрик Жюдор, Рамзи Бедиа, Хафид Ф. Бенамар, Элоди Буше, Кристин Скотт Томас, Бенуа Мажимель, Эдуард Баэр, Омар Сай, Фред Тесто, МС Жан Габен

Описание: Вы думаете, что для «Формулы-1» существуют специальные трассы? Для наших старых знакомцев, Эрика и Рамзи, нигде нет преград. Они носятся на гоночных болидах по Елисейским полям, и их никто не останавливает! Весь Париж опустел будто бы специально для того, чтобы зрители насладились захватывающими приключениями полицейского и преступника, которым никто не мешает погрузиться в ситуацию, доведенную до абсурда.

Качество: HDRip
Формат: AVI
Видео кодек: XviD
Аудио кодек: AC3
Видео: 720х304, 24,000 fps, 1927 kbps, 0.367 bit/pixel
Аудио#1: 48 kHz, AC3 5.1, 448.00 kbps / Дубляж
Аудио#2: 48 kHz, AC3 2.0, 192.00 kbps / Профессиональный (двухголосый закадровый) - (Андрей Бочаров и Евгений Шестаков)
Аудио#3: 48 kHz, AC3 5.1, 448.00 kbps / Оригинал (Французкий)
&
Общее
Полное имя : E:Фильмы МSeuls Two (2008) HDRip (2xRus. Fra).avi
Формат : AVI
Формат/Информация : Audio Video Interleave
Профиль формата : OpenDML
Размер файла : 2,06 Гбайт
Продолжительность : 1 ч. 36 м.
Общий поток : 3040 Кбит/сек
Программа кодирования : VirtualDubModRus 1.5.10.2 (build 2542/release)
Библиотека кодирования : VirtualDubMod build 2542/release

Видео
Идентификатор : 0
Формат : MPEG-4 Visual
Профиль формата : Advanced Simple@L5
Параметр BVOP формата : 1
Параметр QPel формата : Нет
Параметр GMC формата : Без точки перехода
Параметр матрицы формата : Выборочная
Режим смешивания : Сжатый битовый поток
Идентификатор кодека : XVID
Идентификатор кодека/Подсказка : XviD
Продолжительность : 1 ч. 36 м.
Битрейт : 1927 Кбит/сек
Ширина : 720 пикселей
Высота : 304 пикселя
Соотношение сторон : 2,35:1
Частота кадров : 24,000 кадра/сек
Цветовое пространство : YUV
Субдискретизация насыщенности : 4:2:0
Битовая глубина : 8 бит
Тип развёртки : Прогрессивная
Метод сжатия : С потерями
Бит/(Пиксели*Кадры) : 0.367
Размер потока : 1,30 Гбайт (63%)
Библиотека кодирования : XviD 65

Аудио #1
Идентификатор : 1
Формат : AC-3
Формат/Информация : Audio Coding 3
Расширение режима : CM (complete main)
Параметр Endianness формата : Big
Идентификатор кодека : 2000
Продолжительность : 1 ч. 36 м.
Вид битрейта : Постоянный
Битрейт : 448 Кбит/сек
Каналы : 6 каналов
Расположение каналов : Front: L C R, Side: L R, LFE
Частота : 48,0 КГц
Битовая глубина : 16 бит
Метод сжатия : С потерями
Размер потока : 310 Мбайт (15%)
Выравнивание : Разделение по промежуткам
Продолжительность промежутка : 42 мс. (1,00 видеокадр)
Время предзагрузки промежутка : 500 мс.
Заголовок : Дубляж

Аудио #2
Идентификатор : 2
Формат : AC-3
Формат/Информация : Audio Coding 3
Расширение режима : CM (complete main)
Параметр Endianness формата : Big
Идентификатор кодека : 2000
Продолжительность : 1 ч. 36 м.
Вид битрейта : Постоянный
Битрейт : 192 Кбит/сек
Каналы : 2 канала
Расположение каналов : Front: L R
Частота : 48,0 КГц
Битовая глубина : 16 бит
Метод сжатия : С потерями
Размер потока : 133 Мбайт (6%)
Выравнивание : Разделение по промежуткам
Продолжительность промежутка : 42 мс. (1,00 видеокадр)
Время предзагрузки промежутка : 500 мс.
Заголовок : Профессиональный (двухголосый закадровый) - (Андрей Бочаров и Евгений Шестаков)

Аудио #3
Идентификатор : 3
Формат : AC-3
Формат/Информация : Audio Coding 3
Расширение режима : CM (complete main)
Параметр Endianness формата : Big
Идентификатор кодека : 2000
Продолжительность : 1 ч. 36 м.
Вид битрейта : Постоянный
Битрейт : 448 Кбит/сек
Каналы : 6 каналов
Расположение каналов : Front: L C R, Side: L R, LFE
Частота : 48,0 КГц
Битовая глубина : 16 бит
Метод сжатия : С потерями
Размер потока : 310 Мбайт (15%)
Выравнивание : Разделение по промежуткам
Продолжительность промежутка : 42 мс. (1,00 видеокадр)
Время предзагрузки промежутка : 500 мс.
Заголовок : Оригинал (Французкий)


Мы - легенды скачать торрент


piratbit.pw



Скачать Мы - легенды через торрент http://i54.fastpic.ru/big/2012/1213/2e/48c245f40b3944a77797b282faedfa2e.jpg Скачать фильм Мы - легенды через торрент бесплантно в хорошем качестве Описание: Вы думаете, что для «Формулы-1» существуют специальные трассы? Для наших старых знакомцев, Эрика и Рамзи, нигде нет преград. Они ... 10 10 4
Info! Золотая раздача, скачанное не засчитывается.
Торрент: Зарегистрирован [2012-12-13 21:51] · скачан: 444 раз
Статус: √ проверено
Размер: 2.06 GB
Как cкачать? Как скачать Мы - легенды через торрент | UTorrent

% Раздел Тема Автор DL S | L
Фильмы [HD 720p, 1080p] (Хороший звук DUB, MVO) [ 9.18 GB ] Мы - легенды / Seuls two [2008 BDRip 1080p by msltel] DUB DVO msltel Скачать
1 | 0
Фильмы [HD 720p, 1080p] (Хороший звук DUB, MVO) [ 3.76 GB ] Мы - легенды / Seuls two [2008 BDRip 720p by msltel] DUB DVO msltel Скачать
1 | 0
Фильмы [HD 720p, 1080p] (Хороший звук DUB, MVO) [ 4.81 GB ] Мы - легенды / Seuls Two [2008 BDRip 720pDUB +DVO + Original French +Sub ] Assasinca Скачать
1 | 0
Фильмы 2006-2008 [ 1.46 GB ] Мы - легенды / Seuls two [2008 HDRipDUB] akcent Скачать
1 | 0
Фильмы [HD 720p, 1080p] (Хороший звук DUB, MVO) [ 4.67 GB ] Мы - легенды / Seuls Two [2008 BDRip ] markfiter Скачать
1 | 0
Фильмы 2006-2008 [ 1.37 GB ] Мы - легенды / Seuls two [2008 DVDRip] DEVI Скачать
1 | 0
Фильмы [HD 720p, 1080p] (Хороший звук DUB, MVO) [ 4.63 GB ] Мы - легенды / Seuls two [2008 BDRip / 720p] Go[L]dy Скачать
1 | 0

28-11-2019 20:33  

Отключить всю рекламу на сайте

    Дорогой пользователь! Огромная просьба, поблагодарите релизера, оцените раздачу и оставьте свои комментарий, если Вы скачали Мы - легенды через торрент бесплатно! Внесите свою лепту в развитие PiratBit!
    Комментировать посты могут только пользователи прошедшие не сложную регистрацию
    Показать сообщения:    

    Мы - легенды через торрент
    Скачать бесплатно Мы - легенды
    Мы - легенды скачать торрент
    Мы - легенды смотреть онлайн
    Cкачать фильм Мы - легенды бесплатно
    Мы - легенды скачать торрент в хорошем качестве
    Мы - легенды смотреть онлайн бесплатно в хорошем качестве


    Вы не можете начинать темы
    Вы не можете отвечать на сообщения
    Вы не можете редактировать свои сообщения
    Вы не можете удалять свои сообщения
    Вы не можете голосовать в опросах
    Вы не можете прикреплять файлы к сообщениям
    Вы можете скачивать файлы