1 сезон

1 сезон

iTunes

1

КиноПоиск HD

Кинопоиск HD

iTunes

13

1 сезон

RePack

30

Новинка

ВАЖНО

ИГРА 18+

pack

RePack

MK11
pack

Легкие деньги

RePack

jed

RePack

fifa19

RePack

RDR2

RePack

NEED FOR SPEED™ PAYBACK

4 сезон

9 сезон

Бесстыжие 9 сезон

Все сериалы

все сериалы на PB.wtf

RePack

FAR CRY 5
  
Magnet ссылка

Особо опасны / Дикари / Savages (Оливер Стоун) [2012 г., Триллер, Драма, Криминал, BDRip, AVO (одноголосый закадровый) Ю.Сербин] (UNRATED) piratbit.pw

Особо опасны через торрент piratbit.pw

Размер: 1.46 GB | Добавлен: 8 лет 4 мес. назад | Торрент скачан:2033 раза
Скачать  

11-12-2012 22:13 Особо опасны Скачать торрент  

Особо опасны / Дикари / Savages
«Молодые, красивые, дерзкие»

Год выпуска: 2012
Страна: США
Жанр: Триллер, Драма, Криминал
Продолжительность: 02:21:09
Перевод: Авторский (одноголосый закадровый) Ю.Сербин

Режиссер: Оливер Стоун
Продюссер: Мориц Борман, Эрик Копелофф, Тодд Арноу
Сценарий: Дон Уинслоу, Шейн Салерно, Оливер Стоун

Бюджет: $45 000 000
Премьера в мире: 25 июня 2012

В ролях: Тейлор Китч, Блейк Лайвли, Аарон Тейлор-Джонсон, Джон Траволта, Бенисио Дель Торо, Сальма Хайек, Эмиль Хирш, Демиан Бишир, Антонио Джарамилло, Хоакин Косио

Описание: Молодые миллионеры Бен и Чон ведут дела на побережье Калифорнии. Бен — выдающийся ботаник и талантливый бизнесмен, Чон — мастер возвращения долгов и борьбы с конкурентами. В их работе много сложных моментов, ведь они выращивают лучшую в мире траву. Особо серьезные проблемы решает знакомый агент ФБР.
Но с одной не сможет помочь даже он. Сверхприбыльным бизнесом заинтересовался мексиканский картель. Его возглавляет прекрасная Елена, и она нашла главную слабость друзей — и Бен, и Чон принадлежат одной девушке. Ради прелестной О. они готовы на все. Любовь делает нас особо опасными.

Качество: BDRip
Формат: AVI
Видео кодек: XviD
Аудио кодек: AC3
Видео: 720х304, 23,976 fps, 1274 kbps, 0.243 bit/pixel
Аудио#1: 48 kHz, AC3 2.0, 192.00 kbps / Авторский(одноголосый закадровый) Ю.Сербин

&
Общее
Полное имя : E:Фильмы МSavages (20012) BDRip.avi
Формат : AVI
Формат/Информация : Audio Video Interleave
Размер файла : 1,46 Гбайт
Продолжительность : 2 ч. 21 м.
Общий поток : 1476 Кбит/сек
Программа кодирования : VirtualDubModRus 1.5.10.2 (build 2542/release)
Библиотека кодирования : VirtualDubMod build 2542/release

Видео
Идентификатор : 0
Формат : MPEG-4 Visual
Профиль формата : Advanced Simple@L5
Параметр BVOP формата : 1
Параметр QPel формата : Нет
Параметр GMC формата : Без точки перехода
Параметр матрицы формата : Выборочная
Режим смешивания : Сжатый битовый поток
Идентификатор кодека : XVID
Идентификатор кодека/Подсказка : XviD
Продолжительность : 2 ч. 21 м.
Битрейт : 1274 Кбит/сек
Ширина : 720 пикселей
Высота : 304 пикселя
Соотношение сторон : 2,35:1
Частота кадров : 23,976 кадра/сек
Цветовое пространство : YUV
Субдискретизация насыщенности : 4:2:0
Битовая глубина : 8 бит
Тип развёртки : Прогрессивная
Метод сжатия : С потерями
Бит/(Пиксели*Кадры) : 0.243
Размер потока : 1,26 Гбайт (86%)
Библиотека кодирования : XviD 65

Аудио
Идентификатор : 1
Формат : AC-3
Формат/Информация : Audio Coding 3
Расширение режима : CM (complete main)
Параметр Endianness формата : Big
Идентификатор кодека : 2000
Продолжительность : 2 ч. 21 м.
Вид битрейта : Постоянный
Битрейт : 192 Кбит/сек
Каналы : 2 канала
Расположение каналов : Front: L R
Частота : 48,0 КГц
Битовая глубина : 16 бит
Метод сжатия : С потерями
Размер потока : 194 Мбайт (13%)
Выравнивание : Разделение по промежуткам
Продолжительность промежутка : 42 мс. (1,00 видеокадр)
Время предзагрузки промежутка : 500 мс.
Заголовок : Авторский (одноголосый закадровый) Ю.Сербин


Особо опасны скачать торрент


piratbit.pw



Скачать Особо опасны через торрент http://i51.fastpic.ru/big/2012/1211/aa/86d2a368107ba0573a1871f9ffd44faa.png Скачать фильм Особо опасны через торрент бесплантно в хорошем качестве Описание: Молодые миллионеры Бен и Чон ведут дела на побережье Калифорнии. Бен — выдающийся ботаник и талантливый бизнесмен, Чон — мастер ... 9.8 10 6
Info! Золотая раздача, скачанное не засчитывается.
Торрент: Зарегистрирован [2012-12-11 22:13] · скачан: 2 033 раз
Статус: √ проверено
Размер: 1.46 GB
Как cкачать? Как скачать Особо опасны через торрент | UTorrent

28-11-2019 20:33  

Отключить всю рекламу на сайте


12-12-2012 09:19 Особо опасны Скачать торрент  

дубляжа не будет???piratbit.pw



12-12-2012 10:18 Особо опасны Скачать торрент  

stivens777 писал(а):

дубляжа не будет???

31 января выйдет в двдpiratbit.pw



14-12-2012 02:18 Особо опасны Скачать торрент  

Зачётный фильм!piratbit.pw



19-12-2012 04:58 Особо опасны Скачать торрент  

Фильм-то зачётный, только я не понял на что 2,5 часа просмотра убил: так, какой-то пустой, никчемный момент времяпровождения перед экраном, и не Джон Траволта, не Бенисио Дель Торо, не Сальма Хайек положения никчемности идеи-сюжета фильма не спасают. В общем фильм, на мой взгляд, не талантливый, не понравился - увы . piratbit.pw



08-01-2013 13:35 Особо опасны Скачать торрент  

Крутой фильм, давно таких не было!!!! Рекомендую к просмотру! А что касается непонимающих, то смотреть внимательнее надо!piratbit.pw



09-01-2013 20:39 Особо опасны Скачать торрент  

НА MY-HIT.RU Уже с дубляжомpiratbit.pw



    Дорогой пользователь! Огромная просьба, поблагодарите релизера, оцените раздачу и оставьте свои комментарий, если Вы скачали Особо опасны через торрент бесплатно! Внесите свою лепту в развитие PiratBit!
    Комментировать посты могут только пользователи прошедшие не сложную регистрацию
    Показать сообщения:    

    Особо опасны через торрент
    Скачать бесплатно Особо опасны
    Особо опасны скачать торрент
    Особо опасны смотреть онлайн
    Cкачать фильм Особо опасны бесплатно
    Особо опасны скачать торрент в хорошем качестве
    Особо опасны смотреть онлайн бесплатно в хорошем качестве


    Вы не можете начинать темы
    Вы не можете отвечать на сообщения
    Вы не можете редактировать свои сообщения
    Вы не можете удалять свои сообщения
    Вы не можете голосовать в опросах
    Вы не можете прикреплять файлы к сообщениям
    Вы можете скачивать файлы