1 сезон

3 сезон

iTunes

1

iTunes

DUB Netflix

iTunes

13

1 сезон

RePack

30

Deluxe

pack

Легкие деньги

ВАЖНО

ИГРА 18+

pack

RePack

MK11

RePack

jed

RePack

fifa19

RePack

RDR2

RePack

NEED FOR SPEED™ PAYBACK

4 сезон

9 сезон

Бесстыжие 9 сезон

Все сериалы

все сериалы на PB.wtf

RePack

FAR CRY 5

Anonymous, доброй ночи, мы не успеваем до 1 числа собрать деньги на оплату серверов, помогите нам пожалуйста в это трудное время. В качестве благодарности мы отключим Вам всю рекламу на сайте (укажите свой ник в строку Ваше имя)!

×
  
Magnet ссылка

Черная орхидея / The Black Dahlia (Брайан Де Пальма) [2006 г., триллер, драма, криминал, детектив, HDRip-AVC, DUB + Оригинал] piratbit.pw

Черная орхидея через торрент piratbit.pw

Размер: 2.09 GB | Добавлен: 8 лет 6 мес. назад | Торрент скачан:117 раз
Скачать  

06-12-2012 14:18 Черная орхидея Скачать торрент  

Черная орхидея / The Black Dahlia

Год выпуска: 2006
Страна: Германия, США, Франция
Жанр: триллер, драма, криминал, детектив
Продолжительность: 02:00:55
Перевод: Дубляж + Оригинал

Режиссер: Брайан Де Пальма
Продюссер: Руди Коэн, Моше Дайамант, Авэ Лернер
Сценарий: Джош Фридман, Джеймс Эллрой

Бюджет: $50 000 000
Премьера в мире: 9 августа 2006

Мировой рейтинг IMDB 5.60 (47 568)

В ролях: Джош Хартнетт, Скарлетт Йоханссон, Аарон Экхарт, Хилари Суэнк, Миа Киршнер, Майк Старр, Фиона Шоу, Патрик Фишлер, Джеймс Отис, Джон Кэвэна, Денис Беспалый, Людмила Шувалова, Игорь Ливанов, Елена Ивасишина, Александр Новиков

Описание: Конец 40-х годов. Двое полицейских расследуют жестокое убийство голливудской старлетки, разрезанный пополам труп которой найден на заброшенном пустыре. По мере того, как давление со стороны политиков усиливается, напарники обнаруживают, что слишком многие известные люди замешаны в этом деле.Различные нити расследования приводят их в одну из самых влиятельных семей Нью-Йорка, в сердце полицейского департамента Лос-Анджелеса и даже к собственным возлюбленным.

Качество: HDRip-AVC
Формат: MKV
Видео кодек: H.264
Аудио кодек: AC3
Видео: 720x 304(2,35:1),23,976fps, AVC MPEG-4 (H.264), ~1707 kbps avg,0.325 bit/pixel
Аудио#1: русский 48 kHz, AC3 Dolby Digital, 3/2 (L,C,R,l,r) + LFE ch, ~384 kbps avg Дубляж
Аудио#2: английский 48 kHz, AC3 Dolby Digital, 3/2 (L,C,R,l,r) + LFE ch, ~384 kbps avg Оригинал

Автор рипа:





Общее
Уникальный идентификатор : 179825413165397268778290364569998553854 (0x87491D6361E299A290CDA040F48772FE)
Полное имя : E:ТоррентыPiratbitстарыеChernaya orhideya.mkv
Формат : Matroska
Версия формата : Version 2
Размер файла : 2,09 Гбайт
Продолжительность : 2 ч. 0 м.
Общий поток : 2474 Кбит/сек
Дата кодирования : UTC 2012-11-30 17:14:17
Программа кодирования : mkvmerge v4.4.0 ('Die Wiederkehr') сборка от Oct 31 2010 21:52:48
Библиотека кодирования : libebml v1.0.0 + libmatroska v1.0.0

Видео
Идентификатор : 1
Формат : AVC
Формат/Информация : Advanced Video Codec
Профиль формата : High@L4.1
Параметр CABAC формата : Да
Параметр ReFrames формата : 8 кадров
Режим смешивания : Header stripping
Идентификатор кодека : V_MPEG4/ISO/AVC
Продолжительность : 2 ч. 0 м.
Битрейт : 1707 Кбит/сек
Ширина : 720 пикселей
Высота : 304 пикселя
Соотношение сторон : 2,35:1
Частота кадров : 23,976 кадра/сек
Цветовое пространство : YUV
Субдискретизация насыщенности : 4:2:0
Битовая глубина : 8 бит
Тип развёртки : Прогрессивная
Бит/(Пиксели*Кадры) : 0.325
Размер потока : 1,40 Гбайт (67%)
Библиотека кодирования : x264 core 125 r2200 999b753
Настройки программы : cabac=1 / ref=8 / deblock=1:0:0 / analyse=0x3:0x113 / me=hex / subme=7 / psy=1 / psy_rd=1.00:0.00 / mixed_ref=1 / me_range=16 / chroma_me=1 / trellis=1 / 8x8dct=1 / cqm=0 / deadzone=21,11 / fast_pskip=1 / chroma_qp_offset=-2 / threads=6 / lookahead_threads=1 / sliced_threads=0 / nr=0 / decimate=1 / interlaced=0 / bluray_compat=0 / constrained_intra=0 / bframes=8 / b_pyramid=2 / b_adapt=1 / b_bias=0 / direct=1 / weightb=1 / open_gop=0 / weightp=2 / keyint=250 / keyint_min=23 / scenecut=40 / intra_refresh=0 / rc_lookahead=40 / rc=abr / mbtree=1 / bitrate=1707 / ratetol=1.0 / qcomp=0.60 / qpmin=0 / qpmax=69 / qpstep=4 / ip_ratio=1.40 / aq=1:1.00
Default : Да
Forced : Нет

Аудио #1
Идентификатор : 2
Формат : AC-3
Формат/Информация : Audio Coding 3
Расширение режима : CM (complete main)
Параметр Endianness формата : Big
Режим смешивания : Header stripping
Идентификатор кодека : A_AC3
Продолжительность : 2 ч. 0 м.
Вид битрейта : Постоянный
Битрейт : 384 Кбит/сек
Каналы : 6 каналов
Расположение каналов : Front: L C R, Side: L R, LFE
Частота : 48,0 КГц
Битовая глубина : 16 бит
Метод сжатия : С потерями
Размер потока : 332 Мбайт (16%)
Язык : Russian
Default : Да
Forced : Нет

Аудио #2
Идентификатор : 3
Формат : AC-3
Формат/Информация : Audio Coding 3
Расширение режима : CM (complete main)
Параметр Endianness формата : Big
Режим смешивания : Header stripping
Идентификатор кодека : A_AC3
Продолжительность : 2 ч. 0 м.
Вид битрейта : Постоянный
Битрейт : 384 Кбит/сек
Каналы : 6 каналов
Расположение каналов : Front: L C R, Side: L R, LFE
Частота : 48,0 КГц
Битовая глубина : 16 бит
Метод сжатия : С потерями
Размер потока : 332 Мбайт (16%)
Язык : English
Default : Нет
Forced : Нет


Черная орхидея скачать торрент


piratbit.pw



Скачать Черная орхидея через торрент https://pic1.kartinco.top/images/111/bf74qstm4a.png Скачать фильм Черная орхидея через торрент бесплантно в хорошем качестве Описание: Конец 40-х годов. Двое полицейских расследуют жестокое убийство голливудской старлетки, разрезанный пополам труп которой найден ... 10 10 2
Info! Золотая раздача, скачанное не засчитывается.
Торрент: Зарегистрирован [2012-12-06 14:18] · скачан: 117 раз
Статус: √ проверено
Размер: 2.09 GB
Как cкачать? Как скачать Черная орхидея через торрент | UTorrent

% Раздел Тема Автор DL S | L
Фильмы [HD 720p, 1080p] (Хороший звук DUB, MVO) [ 7.2 GB ] Черная орхидея / The Black Dahlia [2006 BDRip 720p от _denis_100 / NNNB] DUB + DVO + AVO + Original + Sub _denis_100 Скачать
1 | 0
Фильмы 2006-2008 [ 748 MB ] Черная орхидея / Black Dahlia The [2006 история DVDRip] Venxxx Скачать
1 | 0
Фильмы 2006-2008 [ 2.18 GB ] Черная орхидея / The Black Dahlia [2006 история BDRip лицензия] DEVI Скачать
1 | 0

28-11-2019 20:33  

Отключить всю рекламу на сайте


    Дорогой пользователь! Огромная просьба, поблагодарите релизера, оцените раздачу и оставьте свои комментарий, если Вы скачали Черная орхидея через торрент бесплатно! Внесите свою лепту в развитие PiratBit!
    Комментировать посты могут только пользователи прошедшие не сложную регистрацию
    Показать сообщения:    

    Черная орхидея через торрент
    Скачать бесплатно Черная орхидея
    Черная орхидея скачать торрент
    Черная орхидея смотреть онлайн
    Cкачать фильм Черная орхидея бесплатно
    Черная орхидея скачать торрент в хорошем качестве
    Черная орхидея смотреть онлайн бесплатно в хорошем качестве


    Вы не можете начинать темы
    Вы не можете отвечать на сообщения
    Вы не можете редактировать свои сообщения
    Вы не можете удалять свои сообщения
    Вы не можете голосовать в опросах
    Вы не можете прикреплять файлы к сообщениям
    Вы можете скачивать файлы