1 сезон

3 сезон

iTunes

1

iTunes

DUB Netflix

iTunes

13

1 сезон

RePack

30

Deluxe

pack

Легкие деньги

ВАЖНО

ИГРА 18+

pack

RePack

MK11

RePack

jed

RePack

fifa19

RePack

RDR2

RePack

NEED FOR SPEED™ PAYBACK

4 сезон

9 сезон

Бесстыжие 9 сезон

Все сериалы

все сериалы на PB.wtf

RePack

FAR CRY 5

Anonymous, доброй ночи, мы не успеваем до 1 числа собрать деньги на оплату серверов, помогите нам пожалуйста в это трудное время. В качестве благодарности мы отключим Вам всю рекламу на сайте (укажите свой ник в строку Ваше имя)!

×
  
Magnet ссылка

Макс Пэйн (Театральная версия) / Max Payne (Джон Мур) [2008 г., BDRip, DUB] piratbit.pw

Макс Пэйн через торрент piratbit.pw

Размер: 745 MB | Добавлен: 8 лет 6 мес. назад | Торрент скачан:103 раза
Скачать  

06-12-2012 14:06 Макс Пэйн Скачать торрент  

Макс Пэйн / Max Payne

Год выпуска: 2008
Страна: Канада, США
Жанр: Триллер,Боевик,Криминал
Продолжительность: 01:39:52
Перевод: Дублированный

Режиссер: Джон Мур

Бюджет: $35 000 000
Премьера в мире: 13 октября 2008



В ролях: Марк Уолберг (Max Payne), Мила Кунис (Mona Sax), Бо Бриджес (BB Hensley), Лудакрис (Jim Bravura, (в титрах: Chris 'Ludacris' Bridges)), Крис О’Доннелл (Jason Colvin), Донал Лог (Alex Balder), Амори Ноласко (Jack Lupino), Кейт Бёртон (Nicole Horne), Ольга Куриленко (Natasha), Ротафорд Грэй (Joe Salle), Джоэль Гордон (Owen Green), Джэми Гектор (Lincoln Deneuf)

Описание: Сотруднику Управления по борьбе с наркотиками не на что жаловаться. У него есть все: отличная работа, любящая жена и маленький ребенок. Словом, не жизнь, а американская мечта, которая однажды оборачивается самым страшным кошмаром: какой-то психопат убивает его семью.
Отныне у Макса только одна цель - отомстить. Но месть осложняется тем, что его несправедливо обвиняют в убийстве, и все, кому не лень, начинают на него охоту - Полицейское управление Нью-Йорка, уголовный мир и городские власти. Теперь ему уже действительно нечего терять и нечего опасаться. При такой отчаянной решимости только Макс Пэйн способен пролить свет на все тайны, связанные с уничтожением его семьи, и главное, получить удовлетворение от мести, которой он так жаждет.

Качество: BDRip
Формат: AVI
Видео кодек: XviD
Аудио кодек: MP3
Видео: 688x288 (2.39:1), 23.976 fps, XviD build 65 ~905 kbps avg, 0.19 bit/pixel
Аудио: 48 kHz, MPEG Layer 3, 2 ch, ~128.00 kbps avg
Релиз от: RED DEVIL



[/url] [/url]
[/url]
[/url]
[/url]
[/url]
[/url]
[/url]





Format : AVI
Format/Info : Audio Video Interleave
File size : 745 MiB
Duration : 1h 39mn
Overall bit rate : 1 043 Kbps
Writing application : VirtualDubMod 1.5.10.3 (build 2550/release)
Writing library : VirtualDubMod build 2550/release

Video
ID : 0
Format : MPEG-4 Visual
Format profile : Advanced Simple@L5
Format settings, BVOP : 1
Format settings, QPel : No
Format settings, GMC : No warppoints
Format settings, Matrix : Custom
Codec ID : XVID
Codec ID/Hint : XviD
Duration : 1h 39mn
Source duration : 1h 17mn
Bit rate : 901 Kbps
Width : 688 pixels
Height : 288 pixels
Display aspect ratio : 2.40:1
Frame rate : 23.976 fps
Color space : YUV
Chroma subsampling : 4:2:0
Bit depth : 8 bits
Scan type : Progressive
Compression mode : Lossy
Bits/(Pixel*Frame) : 0.190
Stream size : 497 MiB (67%)
Writing library : XviD 65

Audio
ID : 1
Format : MPEG Audio
Format version : Version 1
Format profile : Layer 3
Codec ID : 55
Codec ID/Hint : MP3
Duration : 1h 39mn
Source duration : 1h 16mn
Bit rate mode : Constant
Bit rate : 128 Kbps
Channel(s) : 2 channels
Sampling rate : 48.0 KHz
Compression mode : Lossy
Stream size : 70.4 MiB (9%)
Alignment : Aligned on interleaves
Interleave, duration : 42 ms (1.00 video frame)
Interleave, preload duration : 504 ms
Writing library : LAME3.98r
Encoding settings : -m s -V 4 -q 2 -lowpass 17 -b 128


Макс Пэйн скачать торрент


piratbit.pw



Скачать Макс Пэйн через торрент http://3.firepic.org/3/images/2012-12/06/i85w5s97um27.jpg Скачать фильм Макс Пэйн через торрент бесплантно в хорошем качестве Описание: Сотруднику Управления по борьбе с наркотиками не на что жаловаться. У него есть все: отличная работа, любящая жена и маленький ... 10 10 2
Info! Золотая раздача, скачанное не засчитывается.
Торрент: Зарегистрирован [2012-12-06 14:06] · скачан: 103 раз
Статус: √ проверено
Размер: 745 MB
Как cкачать? Как скачать Макс Пэйн через торрент | UTorrent

% Раздел Тема Автор DL S | L
Фильмы 2009 [ 736 MB ] Макс Пэйн / Max Payne [2009 DVDRip] [Альтернативная версия] killermax2013 Скачать
1 | 0
Фильмы [HD 720p, 1080p] (Хороший звук DUB, MVO) [ 8.91 GB ] Макс Пэйн / Max Payne [2008 BDRip 720p] [Unrated Cut] Kavasar Скачать
1 | 0
Фильмы (Blu-ray, BD-Remux, HDDVD) [ 28.39 GB ] Макс Пэйн / Max Payne [2008 BD Remux] DUB [1080p][Extended Cut] _KaisiK_ Скачать
1 | 0
Фильмы 2006-2008 [ 1.46 GB ] Макс Пэйн / Max Payne [2008 HDRip DUB] [Unrated] [ лицензия ] Ворон Скачать
1 | 0
Фильмы [HD 720p, 1080p] (Хороший звук DUB, MVO) [ 4.9 GB ] Макс Пэйн / Max Payne [2008 BDRip 720p DUB] [Unrated] [ лицензия ] Ворон Скачать
1 | 1
Фильмы 2006-2008 [ 1.37 GB ] Макс Пэйн / Max Payne [2008 DVDRip лицензия] Lil Badun Скачать
1 | 0
Фильмы (DVD фильмы) [ 4.22 GB ] Макс Пэйн / Max Payne / 2008 / DVD-5 [2008 DVD5] manhunt5530 Скачать
1 | 0

28-11-2019 20:33  

Отключить всю рекламу на сайте

    Дорогой пользователь! Огромная просьба, поблагодарите релизера, оцените раздачу и оставьте свои комментарий, если Вы скачали Макс Пэйн через торрент бесплатно! Внесите свою лепту в развитие PiratBit!
    Комментировать посты могут только пользователи прошедшие не сложную регистрацию
    Показать сообщения:    

    Макс Пэйн через торрент
    Скачать бесплатно Макс Пэйн
    Макс Пэйн скачать торрент
    Макс Пэйн смотреть онлайн
    Cкачать фильм Макс Пэйн бесплатно
    Макс Пэйн скачать торрент в хорошем качестве
    Макс Пэйн смотреть онлайн бесплатно в хорошем качестве


    Вы не можете начинать темы
    Вы не можете отвечать на сообщения
    Вы не можете редактировать свои сообщения
    Вы не можете удалять свои сообщения
    Вы не можете голосовать в опросах
    Вы не можете прикреплять файлы к сообщениям
    Вы можете скачивать файлы