1 сезон

1 сезон

iTunes

1

iTunes

Кинопоиск HD

iTunes

13

1 сезон

RePack

30

Deluxe

ВАЖНО

ИГРА 18+

pack

RePack

MK11
pack

Легкие деньги

RePack

jed

RePack

fifa19

RePack

RDR2

RePack

NEED FOR SPEED™ PAYBACK

4 сезон

9 сезон

Бесстыжие 9 сезон

Все сериалы

все сериалы на PB.wtf

RePack

FAR CRY 5
  
Magnet ссылка

Опасный Бангкок / Bangkok Dangerous (Оксид Пан, Дэнни Пан) [2008 г., боевик, триллер, драма, криминал, HDRip- AVC, DUB + Оригинал] piratbit.pw

Опасный Бангкок через торрент piratbit.pw

Размер: 2.01 GB | Добавлен: 8 лет 5 мес. назад | Торрент скачан:55 раз
Скачать  

30-11-2012 07:41 Опасный Бангкок Скачать торрент  

Опасный Бангкок / Bangkok Dangerous

«Один человек. Одна пуля. Один выстрел.»

Год выпуска: 2008
Страна: США [sup] [/sup]
Жанр: боевик, триллер, драма, криминал
Продолжительность: 01:39:12
Перевод: Дубляж + Оригинал

Режиссер: Оксид Пан, Дэнни Пан
Продюссер: Николас Кейдж, Норман Голайтли, Уильям Шерак
Сценарий: Джейсон Ричман, Оксид Пан, Дэнни Пан

Бюджет: $45 000 000
Премьера в мире: 22 августа 2008



В ролях: Николас Кейдж, Шакрит Ямнарм, Чарли Енг, Пэнворд Хаммани, Ниратисай Канджарук, Дом Хетракул, Так Напаскорн, Стив Балдоччи, Крис Хибинк, Джеймс Уит

Описание: Четыре главных правила наемного убийцы: 1) не задавать вопросов; 2) нет правых и виноватых; 3) не интересоваться людьми, не имеющих отношения к работе; 4) знать, когда уйти, и уйти богатым.В этом городе вы можете купить всё, но вы не можете купить всех. И тогда для вас нет страшнее человека, чем наемный убийца, который отвечает на удар.

Качество: HDRip-AVC
Формат: MKV
Видео кодек: H.264
Аудио кодек: AC3
Видео: 720x 400 (16:9),23,976fps, AVC MPEG-4 (H.264), ~2085 kbps avg,0.302 bit/pixel
Аудио#1: русский 48 kHz, AC3 Dolby Digital, 3/2 (L,C,R,l,r) + LFE ch, ~384 kbps avg Дубляж
Аудио#2: английский 48 kHz, AC3 Dolby Digital, 3/2 (L,C,R,l,r) + LFE ch, ~448 kbps avg Оригинал


Автор рипа:




Общее
Уникальный идентификатор : 217513055999246120039069332207572820484 (0xA3A37DA40C196AAE8DC956592D1B2204)
Полное имя : E:ТоррентыPiratbitстарыеOpasnyj Bangkok.mkv
Формат : Matroska
Версия формата : Version 2
Размер файла : 2,01 Гбайт
Продолжительность : 1 ч. 39 м.
Общий поток : 2907 Кбит/сек
Дата кодирования : UTC 2012-11-29 13:16:25
Программа кодирования : mkvmerge v4.4.0 ('Die Wiederkehr') сборка от Oct 31 2010 21:52:48
Библиотека кодирования : libebml v1.0.0 + libmatroska v1.0.0

Видео
Идентификатор : 1
Формат : AVC
Формат/Информация : Advanced Video Codec
Профиль формата : High@L4.1
Параметр CABAC формата : Да
Параметр ReFrames формата : 8 кадров
Режим смешивания : Header stripping
Идентификатор кодека : V_MPEG4/ISO/AVC
Продолжительность : 1 ч. 39 м.
Битрейт : 2085 Кбит/сек
Ширина : 720 пикселей
Высота : 400 пикселей
Соотношение сторон : 16:9
Частота кадров : 23,976 кадра/сек
Цветовое пространство : YUV
Субдискретизация насыщенности : 4:2:0
Битовая глубина : 8 бит
Тип развёртки : Прогрессивная
Бит/(Пиксели*Кадры) : 0.302
Размер потока : 1,40 Гбайт (69%)
Библиотека кодирования : x264 core 125 r2200 999b753
Настройки программы : cabac=1 / ref=8 / deblock=1:0:0 / analyse=0x3:0x113 / me=hex / subme=7 / psy=1 / psy_rd=1.00:0.00 / mixed_ref=1 / me_range=16 / chroma_me=1 / trellis=1 / 8x8dct=1 / cqm=0 / deadzone=21,11 / fast_pskip=1 / chroma_qp_offset=-2 / threads=6 / lookahead_threads=1 / sliced_threads=0 / nr=0 / decimate=1 / interlaced=0 / bluray_compat=0 / constrained_intra=0 / bframes=8 / b_pyramid=2 / b_adapt=1 / b_bias=0 / direct=1 / weightb=1 / open_gop=0 / weightp=2 / keyint=250 / keyint_min=23 / scenecut=40 / intra_refresh=0 / rc_lookahead=40 / rc=abr / mbtree=1 / bitrate=2085 / ratetol=1.0 / qcomp=0.60 / qpmin=0 / qpmax=69 / qpstep=4 / ip_ratio=1.40 / aq=1:1.00
Default : Да
Forced : Нет

Аудио #1
Идентификатор : 2
Формат : AC-3
Формат/Информация : Audio Coding 3
Расширение режима : CM (complete main)
Параметр Endianness формата : Big
Режим смешивания : Header stripping
Идентификатор кодека : A_AC3
Продолжительность : 1 ч. 39 м.
Вид битрейта : Постоянный
Битрейт : 384 Кбит/сек
Каналы : 6 каналов
Расположение каналов : Front: L C R, Side: L R, LFE
Частота : 48,0 КГц
Битовая глубина : 16 бит
Метод сжатия : С потерями
Размер потока : 273 Мбайт (13%)
Язык : Russian
Default : Да
Forced : Нет

Аудио #2
Идентификатор : 3
Формат : AC-3
Формат/Информация : Audio Coding 3
Расширение режима : CM (complete main)
Параметр Endianness формата : Big
Режим смешивания : Header stripping
Идентификатор кодека : A_AC3
Продолжительность : 1 ч. 39 м.
Вид битрейта : Постоянный
Битрейт : 448 Кбит/сек
Каналы : 6 каналов
Расположение каналов : Front: L C R, Side: L R, LFE
Частота : 48,0 КГц
Битовая глубина : 16 бит
Метод сжатия : С потерями
Размер потока : 318 Мбайт (15%)
Язык : English
Default : Нет
Forced : Нет


Опасный Бангкок скачать торрент


piratbit.pw



Скачать Опасный Бангкок через торрент https://pic1.kartinco.top/images/111/jk2axhpeil.png Скачать фильм Опасный Бангкок через торрент бесплантно в хорошем качестве Описание: Четыре главных правила наемного убийцы: 1) не задавать вопросов; 2) нет правых и виноватых; 3) не интересоваться людьми, не ... 10 10 2
Info! Золотая раздача, скачанное не засчитывается.
Торрент: Зарегистрирован [2012-11-30 07:41] · скачан: 55 раз
Статус: √ проверено
Размер: 2.01 GB
Как cкачать? Как скачать Опасный Бангкок через торрент | UTorrent

% Раздел Тема Автор DL S | L
Фильмы (Blu-ray, BD-Remux, HDDVD) [ 38.15 GB ] Опасный Бангкок / Bangkok Dangerous [2008 Blu-Ray 1080p] - [] sheker187 Скачать
1 | 0
Фильмы [HD 720p, 1080p] (Хороший звук DUB, MVO) [ 16.64 GB ] Опасный Бангкок / Bangkok Dangerous [2008 BDRip 1080p by msltel] DUB 2 x AVO msltel Скачать
2 | 0
Фильмы [HD 720p, 1080p] (Хороший звук DUB, MVO) [ 5.02 GB ] Опасный Бангкок / Bangkok Dangerous [2008 BDRip 720p by msltel] DUB 2 x AVO msltel Скачать
1 | 0
Фильмы 2006-2008 [ 1.46 GB ] Опасный Бангкок / Bangkok Dangerous [2008 HDRip] killermax2013 Скачать
1 | 0
Фильмы 2006-2008 [ 2.18 GB ] Опасный Бангкок / Bangkok Dangerous BDRip от HQCLUB DEVI Скачать
1 | 0
Фильмы [HD 720p, 1080p] (Хороший звук DUB, MVO) [ 7.76 GB ] Опасный Бангкок / Bangkok Dangerous [2008 BDRip 1080p [] KEYS Скачать
1 | 0
Фильмы 2006-2008 [ 1.37 GB ] Опасный Бангкок / Bangkok Dangerous [2008 HDRip лицензия] Lil Badun Скачать
1 | 0

28-11-2019 20:33  

Отключить всю рекламу на сайте

    Дорогой пользователь! Огромная просьба, поблагодарите релизера, оцените раздачу и оставьте свои комментарий, если Вы скачали Опасный Бангкок через торрент бесплатно! Внесите свою лепту в развитие PiratBit!
    Комментировать посты могут только пользователи прошедшие не сложную регистрацию
    Показать сообщения:    

    Опасный Бангкок через торрент
    Скачать бесплатно Опасный Бангкок
    Опасный Бангкок скачать торрент
    Опасный Бангкок смотреть онлайн
    Cкачать фильм Опасный Бангкок бесплатно
    Опасный Бангкок скачать торрент в хорошем качестве
    Опасный Бангкок смотреть онлайн бесплатно в хорошем качестве


    Вы не можете начинать темы
    Вы не можете отвечать на сообщения
    Вы не можете редактировать свои сообщения
    Вы не можете удалять свои сообщения
    Вы не можете голосовать в опросах
    Вы не можете прикреплять файлы к сообщениям
    Вы можете скачивать файлы