1 сезон

1 сезон

iTunes

1

КиноПоиск HD

Кинопоиск HD

iTunes

13

1 сезон

RePack

30

Ultimate

ВАЖНО

ИГРА 18+

pack

RePack

MK11
pack

Легкие деньги

RePack

jed

RePack

fifa19

RePack

RDR2

RePack

NEED FOR SPEED™ PAYBACK

4 сезон

9 сезон

Бесстыжие 9 сезон

Все сериалы

все сериалы на PB.wtf

RePack

FAR CRY 5
  
Magnet ссылка

Брюнетка за 30 копеек (Сергей Никоненко.) [1997 г., комедия, TVRip, Оригинал] piratbit.pw

Брюнетка за 30 копеек через торрент piratbit.pw

Размер: 1.37 GB | Добавлен: 8 лет 4 мес. назад | Торрент скачан:86 раз
Скачать  

27-11-2012 16:05 Брюнетка за 30 копеек Скачать торрент  

Брюнетка за 30 копеек

Год выпуска: 1991
Страна: СССР
Жанр: комедия
Продолжительность: 01:18:58
Перевод: Оригинал

Режиссер: Сергей Никоненко.
Сценарий: Александр Дудоладов


http://www.kinopoisk.ru/film/46230/

В ролях: Сергей Никоненко, Анна Самохина, Виктор Ильичев, Евгений Леонов-Гладышев, Александр Пашутин, Татьяна Агафонова, Алена Ивченко, Александр Карпиловский, Маргарита Сергеечева, Александр Беспалый, Михаил Светин, Татьяна Ильченко, Ирина Нарбекова, Юрий Рудченко.

Описание: «Вход в женское общежитие мужским полам запрещен». Такая вывеска висит у входа, но мужские полы все равно лезут в окна. Увидев эту тягу к прекрасному, власти провинциального городка решили поправить финансовое положение открытием публичного дома, сохранив при этом целомудрие представительниц слабого пола…

Качество: TVRip
Формат: AVI
Видео кодек: XviD
Аудио кодек: MPEG Audio
Видео: MPEG-4 Visual, XviD, 2279 Кбит/сек, 720х544 пикселя, 25,000 кадров/сек
Аудио#1: MPEG Audio, Layer 2,192 Кбит/сек, 1 канал, 48,0 КГц





Формат : AVI
Формат/Информация : Audio Video Interleave
Размер файла : 1,37 Гбайт
Продолжительность : 1 ч. 18 м.
Общий поток : 2478 Кбит/сек
Программа кодирования : VirtualDubMod 1.5.4.1 (build 2178/release)
Библиотека кодирования : VirtualDubMod build 2178/release

Видео
Идентификатор : 0
Формат : MPEG-4 Visual
Профиль формата : Advanced Simple@L5
Параметр BVOP формата : 1
Параметр QPel формата : Нет
Параметр GMC формата : Без точки перехода
Параметр матрицы формата : Выборочная
Идентификатор кодека : XVID
Идентификатор кодека/Подсказка : XviD
Продолжительность : 1 ч. 18 м.
Битрейт : 2279 Кбит/сек
Ширина : 720 пикселей
Высота : 544 пикселя
Соотношение сторон : 4:3
Частота кадров : 25,000 кадров/сек
Цветовое пространство : YUV
Субдискретизация насыщенности : 4:2:0
Битовая глубина : 8 бит
Тип развёртки : Прогрессивная
Метод сжатия : С потерями
Бит/(Пиксели*Кадры) : 0.233
Размер потока : 1,26 Гбайт (92%)
Библиотека кодирования : XviD 1.2.1 (UTC 2008-12-04)

Аудио
Идентификатор : 1
Формат : MPEG Audio
Версия формата : Version 1
Профиль формата : Layer 2
Расширение режима : Intensity Stereo + MS Stereo
Идентификатор кодека : 50
Продолжительность : 1 ч. 18 м.
Вид битрейта : Постоянный
Битрейт : 192 Кбит/сек
Каналы : 1 канал
Частота : 48,0 КГц
Метод сжатия : С потерями
Размер потока : 108 Мбайт (8%)
Выравнивание : Соединение по промежуткам
Продолжительность промежутка : 80 мс. (2,00 видеокадра)
Время предзагрузки промежутка : 504 мс.

piratbit.pw



Скачать Брюнетка за 30 копеек через торрент https://pic.kartinco.top/images/1/mj7r6cf5pm.jpg Скачать фильм Брюнетка за 30 копеек через торрент бесплантно в хорошем качестве Описание: «Вход в женское общежитие мужским полам запрещен». Такая вывеска висит у входа, но мужские полы все равно лезут в окна. Увидев ... 10 10 2
Info! Золотая раздача, скачанное не засчитывается.
Торрент: Зарегистрирован [2012-11-27 16:05] · скачан: 86 раз
Статус: √ проверено
Размер: 1.37 GB
Как cкачать? Как скачать Брюнетка за 30 копеек через торрент | UTorrent



Последний раз редактировалось: lexxus350 (2012-11-27 17:29), всего редактировалось 3 раз(а)

28-11-2019 20:33  

Отключить всю рекламу на сайте

27-11-2012 16:12 Брюнетка за 30 копеек Скачать торрент  

Убираем ссылку на сторонний ресурс с обложки.piratbit.pw



27-11-2012 16:26 Брюнетка за 30 копеек Скачать торрент  

название фильма и описание манят... но год выпуска отпугивает))


piratbit.pw



27-11-2012 18:35 Брюнетка за 30 копеек Скачать торрент  

viktorius писал(а):

название фильма и описание манят... но год выпуска отпугивает))



Меня пугает не только год выпуска но и обложка,такое ощущение что пориво какоето:Dpiratbit.pw



27-11-2012 19:17 Брюнетка за 30 копеек Скачать торрент  

Постер жжот!! Кто сморел??piratbit.pw



27-11-2012 19:27 Брюнетка за 30 копеек Скачать торрент  

Странно что есть кто то кто не смотрел. фильм то очень старыйpiratbit.pw



    Дорогой пользователь! Огромная просьба, поблагодарите релизера, оцените раздачу и оставьте свои комментарий, если Вы скачали Брюнетка за 30 копеек через торрент бесплатно! Внесите свою лепту в развитие PiratBit!
    Комментировать посты могут только пользователи прошедшие не сложную регистрацию
    Показать сообщения:    

    Брюнетка за 30 копеек через торрент
    Скачать бесплатно Брюнетка за 30 копеек
    Брюнетка за 30 копеек скачать торрент
    Брюнетка за 30 копеек смотреть онлайн
    Cкачать фильм Брюнетка за 30 копеек бесплатно
    Брюнетка за 30 копеек скачать торрент в хорошем качестве
    Брюнетка за 30 копеек смотреть онлайн бесплатно в хорошем качестве


    Вы не можете начинать темы
    Вы не можете отвечать на сообщения
    Вы не можете редактировать свои сообщения
    Вы не можете удалять свои сообщения
    Вы не можете голосовать в опросах
    Вы не можете прикреплять файлы к сообщениям
    Вы можете скачивать файлы