1 сезон

1 сезон

iTunes

1

КиноПоиск HD

Кинопоиск HD

iTunes

13

1 сезон

RePack

30

Deluxe

ВАЖНО

ИГРА 18+

pack

RePack

MK11
pack

Легкие деньги

RePack

jed

RePack

fifa19

RePack

RDR2

RePack

NEED FOR SPEED™ PAYBACK

4 сезон

9 сезон

Бесстыжие 9 сезон

Все сериалы

все сериалы на PB.wtf

RePack

FAR CRY 5
  
Magnet ссылка

Туристас / Turistas (Джон Стокуэлл) [2006 г., Ужасы, Триллер, Детектив, HDRip, VO (zamez) ] piratbit.pw

Туристас через торрент piratbit.pw

Размер: 744 MB | Добавлен: 8 лет 5 мес. назад | Торрент скачан:52 раза
Скачать  

26-11-2012 15:29 Туристас Скачать торрент  

Туристас / Turistas

Год выпуска: 2006
Страна: США
Жанр: Ужасы, Триллер, Детектив
Продолжительность: 01:35:51
Перевод: Одноголосый закадровый (zamez)

Режиссер: Джон Стокуэлл

Бюджет: $10 000 000
Премьера в мире: 1 декабря 2006



В ролях: Джош Дюамель, Мелисса Джордж, Оливия Уайлд, Десмонд Аскью, Бо Гаррет, Макс Браун, Аглес Стайб, Мигель Лунарди, Хорхе Со, Кристиани Апарекида
Описание: Компания студентов решила провести каникулы, путешествуя по Бразилии. Экзотические пейзажи, красивые животные, интересные встречи — ничто не предвещало беды. Неожиданно у затерянного острова близ бразильского побережья их автобус терпит крушение, и молодые люди остаются один на один с джунглями. Труднопроходимые тропические леса хранят свои секреты. Туристы становятся жертвами кровавых экспериментов засекреченной военной группы.
Качество: HDRip
Формат: AVI
Видео кодек: XviD
Аудио кодек: MP3
Видео: 688x288 (2.39:1), 23.976 fps, XviD build 65 ~945 kbps avg, 0.20 bit/pixel
Аудио: 48 kHz, MPEG Layer 3, 2 ch, ~128.00 kbps avg

Релиз группы:

[/url]










Полное имя : C:DownloadTorrentТуристас Turistas (2006) HDRipTuristas_UNRATED_2006_L1_HDRip_745_by_Yarmak23.avi
Формат : AVI
Формат/Информация : Audio Video Interleave
Размер файла : 744 Мбайт
Продолжительность : 1 ч. 35 м.
Общий поток : 1085 Кбит/сек
Программа кодирования : VirtualDubMod 1.5.10.2 (build 2540/release)
Библиотека кодирования : VirtualDubMod build 2540/release

Видео
Идентификатор : 0
Формат : MPEG-4 Visual
Профиль формата : Advanced Simple@L5
Параметр BVOP формата : 1
Параметр QPel формата : Нет
Параметр GMC формата : Без точки перехода
Параметр матрицы формата : Выборочная
Идентификатор кодека : XVID
Идентификатор кодека/Подсказка : XviD
Продолжительность : 1 ч. 35 м.
Битрейт : 905 Кбит/сек
Ширина : 688 пикселей
Высота : 288 пикселей
Соотношение сторон : 2,40:1
Частота кадров : 23,976 кадра/сек
Цветовое пространство : YUV
Субдискретизация насыщенности : 4:2:0
Битовая глубина : 8 бит
Тип развёртки : Прогрессивная
Метод сжатия : С потерями
Бит/(Пиксели*Кадры) : 0.191
Размер потока : 621 Мбайт (83%)
Библиотека кодирования : XviD 65

Аудио
Идентификатор : 1
Формат : MPEG Audio
Версия формата : Version 1
Профиль формата : Layer 3
Режим : Joint stereo
Расширение режима : MS Stereo
Идентификатор кодека : 55
Идентификатор кодека/Подсказка : MP3
Продолжительность : 1 ч. 35 м.
Вид битрейта : Постоянный
Битрейт : 128 Кбит/сек
Каналы : 2 канала
Частота : 48,0 КГц
Метод сжатия : С потерями
Размер потока : 87,8 Мбайт (12%)
Выравнивание : Соединение по промежуткам

piratbit.pw



Скачать Туристас через торрент http://2.firepic.org/2/images/2012-11/26/rdsk5w4pk2v7.png Скачать фильм Туристас через торрент бесплантно в хорошем качестве Описание: Компания студентов решила провести каникулы, путешествуя по Бразилии. Экзотические пейзажи, красивые животные, интересные встречи ... 5 10 1
Info! Золотая раздача, скачанное не засчитывается.
Торрент: Зарегистрирован [2012-11-26 15:29] · скачан: 52 раз
Статус: T временная
Размер: 744 MB
Как cкачать? Как скачать Туристас через торрент | UTorrent

% Раздел Тема Автор DL S | L
Фильмы [HD 720p, 1080p] (Хороший звук DUB, MVO) [ 7.76 GB ] Туристас / Turistas [2006 BDRip 1080p от _denis_100] DUB _denis_100 Скачать
1 | 0
Фильмы [HD 720p, 1080p] (Хороший звук DUB, MVO) [ 9.6 GB ] Туристас / Turistas [2006 BDRip 1080p DUB] VintMosina Скачать
1 | 0
Фильмы 2006-2008 [ 1.46 GB ] Туристас / Turistas [2006 HDTVRip DUB] Артронах Скачать
1 | 0
Фильмы 2006-2008 [ 744 MB ] Туристас / Turistas [ 2006 HDRip] [Unrated version] DUB + Sub -=Cherry=- Скачать
1 | 0
Фильмы 2006-2008 [ 1.37 GB ] Туристас / Turistas [2006 DVDRip] _tatyana_ Скачать
1 | 0

28-11-2019 20:33  

Отключить всю рекламу на сайте

    Дорогой пользователь! Огромная просьба, поблагодарите релизера, оцените раздачу и оставьте свои комментарий, если Вы скачали Туристас через торрент бесплатно! Внесите свою лепту в развитие PiratBit!
    Комментировать посты могут только пользователи прошедшие не сложную регистрацию
    Показать сообщения:    

    Туристас через торрент
    Скачать бесплатно Туристас
    Туристас скачать торрент
    Туристас смотреть онлайн
    Cкачать фильм Туристас бесплатно
    Туристас скачать торрент в хорошем качестве
    Туристас смотреть онлайн бесплатно в хорошем качестве


    Вы не можете начинать темы
    Вы не можете отвечать на сообщения
    Вы не можете редактировать свои сообщения
    Вы не можете удалять свои сообщения
    Вы не можете голосовать в опросах
    Вы не можете прикреплять файлы к сообщениям
    Вы можете скачивать файлы