1 сезон

1 сезон

iTunes

1

iTunes

Кинопоиск HD

iTunes

13

1 сезон

RePack

30

Deluxe

ВАЖНО

ИГРА 18+

pack

RePack

MK11
pack

Легкие деньги

RePack

jed

RePack

fifa19

RePack

RDR2

RePack

NEED FOR SPEED™ PAYBACK

4 сезон

9 сезон

Бесстыжие 9 сезон

Все сериалы

все сериалы на PB.wtf

RePack

FAR CRY 5
  
Magnet ссылка

Омен / The Omen (Джон Мур) [2006 г., ужасы, триллер, HDRip, Дубляж ] piratbit.pw

Омен через торрент piratbit.pw

Размер: 743 MB | Добавлен: 8 лет 5 мес. назад | Торрент скачан:85 раз
Скачать  

25-11-2012 15:59 Омен Скачать торрент  

Омен / The Omen

Год выпуска: 2006
Страна: США
Жанр: ужасы, триллер
Продолжительность: 01:49:50
Перевод: Профессиональный (полное дублирование)

Режиссер: Джон Мур

Бюджет: $25 000 000
Премьера в мире: 6 июня 2006



В ролях: Лив Шрайбер, Джулия Стайлз, Шеймас Дэви-Фицпатрик, Джованни Ломбардо Радиче, Харви Стивенсон
Описание: Многие верят в то, что в апокалипсисе предсказано страшное будущее человечества, которое начинает сбываться в наши дни. Приметы налицо: атаки террористов, экстремальные изменения климата… Cписок продолжает пополняться. Ещё чуть-чуть, и появится антихрист, который несёт на себе печать «666»: знак апокалипсического зверя.
Антихрист получит Влacть прямо от сатаны, чтобы установить на земле царство обмана и приблизить наступление армагеддона. Роберт Торн, американский дипломат высокого ранга, не интересуется мрачными предсказаниями. Он занят совсем другими мыслями: его жена Кэтрин перенесла тяжёлые роды и ещё не знает, что их новорожденный ребёнок умер. Торн боится, что Кэтрин, перенёсшая ранее два выкидыша, не выдержит такого удара…

Качество: HDRip
Формат: AVI
Видео кодек: XviD
Аудио кодек: MP3
Видео: 592x320 (1.85:1), 23.976 fps, XviD build 63 ~808 kbps avg, 0.18 bit/pixel
Аудио: 48 kHz, MPEG Layer 3, 2 ch, ~128.00 kbps avg

[/url]










Полное имя : C:DownloadTorrentОмен The Omen (2006) HDRipThe.Omen.2006.HDRip.743.Dub.All.Films.avi
Формат : AVI
Формат/Информация : Audio Video Interleave
Размер файла : 743 Мбайт
Продолжительность : 1 ч. 49 м.
Общий поток : 946 Кбит/сек
Название фильма : The.Omen.2006.HDRip.Dub.All.Films
Режиссёр : DIABLO93
Жанр : Thriller
Программа кодирования : VirtualDubMod 1.5.10.3 (build 2550/release)
Формат оригинала/Имя : Movie
Правообладатель : Rutracker.org (All Films)

Видео
Идентификатор : 0
Формат : MPEG-4 Visual
Профиль формата : Advanced Simple@L5
Параметр BVOP формата : 2
Параметр QPel формата : Нет
Параметр GMC формата : Без точки перехода
Параметр матрицы формата : Выборочная
Идентификатор кодека : XVID
Идентификатор кодека/Подсказка : XviD
Продолжительность : 1 ч. 49 м.
Битрейт : 809 Кбит/сек
Ширина : 592 пикселя
Высота : 320 пикселей
Соотношение сторон : 1,85:1
Частота кадров : 23,976 кадра/сек
Цветовое пространство : YUV
Субдискретизация насыщенности : 4:2:0
Битовая глубина : 8 бит
Тип развёртки : Прогрессивная
Метод сжатия : С потерями
Бит/(Пиксели*Кадры) : 0.178
Размер потока : 635 Мбайт (85%)
Библиотека кодирования : XviD 63

Аудио
Идентификатор : 1
Формат : MPEG Audio
Версия формата : Version 1
Профиль формата : Layer 3
Идентификатор кодека : 55
Идентификатор кодека/Подсказка : MP3
Продолжительность : 1 ч. 49 м.
Вид битрейта : Постоянный
Битрейт : 128 Кбит/сек
Каналы : 2 канала
Частота : 48,0 КГц
Метод сжатия : С потерями
Размер потока : 101 Мбайт (14%)
Выравнивание : Соединение по промежуткам
Продолжительность промежутка : 42 мс. (1,00 видеокадр)
Время предзагрузки промежутка : 504 мс.
Библиотека кодирования : LAME3.98r
Настройки программы : -m s -V 4 -q 2 -lowpass 17 -b 128

piratbit.pw



Скачать Омен через торрент http://2.firepic.org/2/images/2012-11/25/dnmyxmncek4g.jpg Скачать фильм Омен через торрент бесплантно в хорошем качестве Описание: Многие верят в то, что в апокалипсисе предсказано страшное будущее человечества, которое начинает сбываться в наши дни. Приметы ... 10 10 2
Info! Золотая раздача, скачанное не засчитывается.
Торрент: Зарегистрирован [2012-11-25 15:59] · скачан: 85 раз
Статус: √ проверено
Размер: 743 MB
Как cкачать? Как скачать Омен через торрент | UTorrent

% Раздел Тема Автор DL S | L
Документальные фильмы и телепередачи [ 1.97 GB ] Феномен «Бумажного дома» / La casa de papel: El fenómeno / Money Heist: The Phenomenon [2020 документальный WEBRip 720p] [MVO] killermax2013 Скачать
1 | 0
Фильмы (Blu-ray, BD-Remux, HDDVD) [ 31.86 GB ] Омен / The Omen [1976 Blu-Ray Remux 1080p] 4xMVO DVO 9xAVO Леонид Ильич Скачать
1 | 0
Арт-хаус и авторское кино [ 7.79 GB ] Момент безрассудства / The Reckless Moment [1949 фильм-нуар BDRip 1080p by msltel] AVO msltel Скачать
1 | 0
Арт-хаус и авторское кино [ 2.8 GB ] Момент безрассудства / The Reckless Moment [1949 фильм-нуар BDRip 720p by msltel] AVO msltel Скачать
1 | 0
Арт-хаус и авторское кино [ 1.55 GB ] Момент безрассудства / The Reckless Moment [1949 фильм-нуар BDRip by msltel] AVO msltel Скачать
1 | 0
Фильмы [HD 720p, 1080p] (Хороший звук DUB, MVO) [ 16.13 GB ] Омен / The Omen [1976 BDRip 1080p by msltel] 2 x MVO 7 x AVO msltel Скачать
1 | 0
Фильмы [HD 720p, 1080p] (Хороший звук DUB, MVO) [ 6.56 GB ] Омен / The Omen [1976 BDRip 720p by msltel] 2 x MVO 7 x AVO msltel Скачать
1 | 0

28-11-2019 20:33  

Отключить всю рекламу на сайте

25-11-2012 16:58 Омен Скачать торрент  

И это вы называете ужасами? Старый фильм лучше а этот чушь и УГ!! piratbit.pw



25-11-2012 18:18 Омен Скачать торрент  

Бэтмэн писал(а):

И это вы называете ужасами? Старый фильм лучше а этот чушь и УГ!!

для вас,наверное,Паранормальное явление ужасы...piratbit.pw



25-11-2012 19:58 Омен Скачать торрент  

JhaWithYou писал(а):

Бэтмэн писал(а):

И это вы называете ужасами? Старый фильм лучше а этот чушь и УГ!!

для вас,наверное,Паранормальное явление ужасы...

Он как бы про предшествующую экранизацию гениального произведения, от 76 года, ага.
Говорят, что на премьере того фильма у нескольких зрителей был инфаркт. 8)
А книжка шикарная!piratbit.pw



    Дорогой пользователь! Огромная просьба, поблагодарите релизера, оцените раздачу и оставьте свои комментарий, если Вы скачали Омен через торрент бесплатно! Внесите свою лепту в развитие PiratBit!
    Комментировать посты могут только пользователи прошедшие не сложную регистрацию
    Показать сообщения:    

    Омен через торрент
    Скачать бесплатно Омен
    Омен скачать торрент
    Омен смотреть онлайн
    Cкачать фильм Омен бесплатно
    Омен скачать торрент в хорошем качестве
    Омен смотреть онлайн бесплатно в хорошем качестве


    Вы не можете начинать темы
    Вы не можете отвечать на сообщения
    Вы не можете редактировать свои сообщения
    Вы не можете удалять свои сообщения
    Вы не можете голосовать в опросах
    Вы не можете прикреплять файлы к сообщениям
    Вы можете скачивать файлы