1 сезон

1 сезон

iTunes

1

iTunes

Кинопоиск HD

iTunes

13

1 сезон

RePack

30

Deluxe

ВАЖНО

ИГРА 18+

pack

RePack

MK11
pack

Легкие деньги

RePack

jed

RePack

fifa19

RePack

RDR2

RePack

NEED FOR SPEED™ PAYBACK

4 сезон

9 сезон

Бесстыжие 9 сезон

Все сериалы

все сериалы на PB.wtf

RePack

FAR CRY 5
  
Magnet ссылка

99 франков / 99 francs (Ян Кунен) [2007 г., драма, комедия, DVDRip, DUB, лицензия] piratbit.pw

99 франков через торрент piratbit.pw

Размер: 701 MB | Добавлен: 8 лет 5 мес. назад | Торрент скачан:112 раз
Скачать  

20-11-2012 16:11 99 франков Скачать торрент  

99 франков / 99 francs

Год выпуска: 2007
Страна: Франция
Жанр: драма, комедия
Продолжительность: 01:39:55
Перевод: Дубляж, Лицензия

Режиссер: Ян Кунен

Бюджет: € 12 500 000
Премьера в мире: 26 сентября 2007



В ролях: Жан Дюжарден, Жослин Киврин, Патрик Милль, Вахина Джоканте, Элиза Товати, Никола Мари, Доминик Беттенфельд, Антуа Басле, Фоско Перинти, Дан Херцберг

Описание: Октаву нет равных во вселенной, ведь он занимается рекламой! Это он решает, чего вам захочется завтра: «Все покупается - любовь, искусство, планета Земля, Вы, я. Я - особенно. Человек - продукт, как и прочее - с ограниченным сроком годности. Я - рекламщик, я заставляю Вас мечтать о том, чем Вы не сможете обладать. У нас небо всегда голубое, девчонки всегда красивые - совершенное счастье, подретушированное с помощью Photoshop'а». Октав трудится в крупнейшем рекламном агентстве. У него полно денег, женщин и кокаина, но, тем не менее, его терзают сомнения...
Две вещи в корне меняют жизнь Октава: роман с Софи, самой красивой сотрудницей агентства, и совещание в гигантском молочном концерне «Мадон» по поводу рекламного ролика. Октав срывается с катушек и решает взбунтоваться против системы, которая его породила, саботируя свою же рекламную кампанию.

Качество: DVDRip
Формат: AVI
Видео кодек: XviD
Аудио кодек: MP3
Видео: 608x256 (2.38:1), 25 fps, XviD build 45 ~871 kbps avg, 0.22 bit/pixel
Аудио: 48 kHz, MPEG Layer 3, 2 ch, ~96.00 kbps avg

[/url]










Complete name : C:Downloadtorrent99 франков 99 francs (2007) DVDRip99_frankov.avi
Format : AVI
Format/Info : Audio Video Interleave
File size : 701 MiB
Duration : 1h 39mn
Overall bit rate : 981 Kbps
Writing application : Lavf50.6.0

Video
ID : 0
Format : xvid
Codec ID : xvid
Duration : 1h 39mn
Bit rate : 872 Kbps
Width : 608 pixels
Height : 256 pixels
Display aspect ratio : 2.40:1
Frame rate : 25.000 fps
Bits/(Pixel*Frame) : 0.224
Stream size : 623 MiB (89%)

Audio
ID : 1
Format : MPEG Audio
Format version : Version 1
Format profile : Layer 3
Mode : Joint stereo
Mode extension : MS Stereo
Codec ID : 55
Codec ID/Hint : MP3
Duration : 1h 39mn
Bit rate mode : Constant
Bit rate : 96.0 Kbps
Channel(s) : 2 channels
Sampling rate : 48.0 KHz
Compression mode : Lossy
Stream size : 68.6 MiB (10%)
Alignment : Aligned on interleaves
Interleave, duration : 24 ms (0.60 video frame)
Interleave, preload duration : 24 ms

piratbit.pw



Скачать 99 франков через торрент http://4.firepic.org/4/images/2012-11/20/9t2ce5zr25q8.jpg Скачать фильм 99 франков через торрент бесплантно в хорошем качестве Описание: Октаву нет равных во вселенной, ведь он занимается рекламой! Это он решает, чего вам захочется завтра: «Все покупается - любовь, ... 6 10 1
Info! Золотая раздача, скачанное не засчитывается.
Торрент: Зарегистрирован [2012-11-20 16:11] · скачан: 112 раз
Статус: √ проверено
Размер: 701 MB
Как cкачать? Как скачать 99 франков через торрент | UTorrent

% Раздел Тема Автор DL S | L
Фильмы 2006-2008 [ 1.46 GB ] 99 франков / 99 Francs [2007 HDRip лицензия] akmvvmupp Скачать
1 | 0

28-11-2019 20:33  

Отключить всю рекламу на сайте

    Дорогой пользователь! Огромная просьба, поблагодарите релизера, оцените раздачу и оставьте свои комментарий, если Вы скачали 99 франков через торрент бесплатно! Внесите свою лепту в развитие PiratBit!
    Комментировать посты могут только пользователи прошедшие не сложную регистрацию
    Показать сообщения:    

    99 франков через торрент
    Скачать бесплатно 99 франков
    99 франков скачать торрент
    99 франков смотреть онлайн
    Cкачать фильм 99 франков бесплатно
    99 франков скачать торрент в хорошем качестве
    99 франков смотреть онлайн бесплатно в хорошем качестве


    Вы не можете начинать темы
    Вы не можете отвечать на сообщения
    Вы не можете редактировать свои сообщения
    Вы не можете удалять свои сообщения
    Вы не можете голосовать в опросах
    Вы не можете прикреплять файлы к сообщениям
    Вы можете скачивать файлы