1 сезон

1 сезон

iTunes

1

iTunes

Кинопоиск HD

iTunes

13

1 сезон

RePack

30

Deluxe

ВАЖНО

ИГРА 18+

pack

RePack

MK11
pack

Легкие деньги

RePack

jed

RePack

fifa19

RePack

RDR2

RePack

NEED FOR SPEED™ PAYBACK

4 сезон

9 сезон

Бесстыжие 9 сезон

Все сериалы

все сериалы на PB.wtf

RePack

FAR CRY 5
  
Magnet ссылка

Огнестрельные истории / Shotgun Stories (Джефф Николс) [2007 г., драма, DVDRip, VO] piratbit.pw

Огнестрельные истории через торрент piratbit.pw

Размер: 697 MB | Добавлен: 8 лет 5 мес. назад | Торрент скачан:23 раза
Скачать  

20-11-2012 14:38 Огнестрельные истории Скачать торрент  

Огнестрельные истории / Shotgun Stories

Год выпуска: 2007
Страна: США
Жанр: драма
Продолжительность: 01:26:32
Перевод: Одноголосый закадровый(озвучил zamez по переводу Dr.pro)

Режиссер: Джефф Николс

Премьера в мире: 14 февраля 2007



В ролях: Майкл Шеннон, Дуглас Лигон, Барлоу Джейкобс, Натали Кэнердей, Гленда Паннелл, Линнси Прованс, Майкл Эбботт мл., Коли Канпани, Лэнс Кристофер, Уилл Хан

Описание: История родовой междоусобицы, вспыхнувшей после смерти властного фермера между его сыновьями от разных браков. Посреди хлопковых полей Южного Арканзаса насилие разрастается до масштабов бесконечной войны.

Качество: DVDRip
Формат: AVI
Видео кодек: XviD
Аудио кодек: AC3
Видео: 640x272 (2.35:1), 25 fps, XviD build 46 ~924 kbps avg, 0.21 bit/pixel
Аудио: 48 kHz, AC3 Dolby Digital, 2/0 (L,R) ch, ~192 kbps

[/url]










Complete name : C:DownloadtorrentОгнестрельные истории Shotgun Stories (2007) DVDRipShotgun.Stories.2007.DVDRip.Rus.avi
Format : AVI
Format/Info : Audio Video Interleave
File size : 697 MiB
Duration : 1h 26mn
Overall bit rate : 1 126 Kbps
Writing application : VirtualDubMod 1.5.10.2 (build 2540/release)
Writing library : VirtualDubMod build 2540/release

Video
ID : 0
Format : MPEG-4 Visual
Format profile : Advanced Simple@L5
Format settings, BVOP : 2
Format settings, QPel : No
Format settings, GMC : No warppoints
Format settings, Matrix : Default (H.263)
Codec ID : XVID
Codec ID/Hint : XviD
Duration : 1h 26mn
Bit rate : 924 Kbps
Width : 640 pixels
Height : 272 pixels
Display aspect ratio : 2.35:1
Frame rate : 25.000 fps
Color space : YUV
Chroma subsampling : 4:2:0
Bit depth : 8 bits
Scan type : Progressive
Compression mode : Lossy
Bits/(Pixel*Frame) : 0.212
Stream size : 572 MiB (82%)
Writing library : XviD 1.1.2 (UTC 2006-11-01)

Audio
ID : 1
Format : AC-3
Format/Info : Audio Coding 3
Mode extension : CM (complete main)
Format settings, Endianness : Big
Codec ID : 2000
Duration : 1h 26mn
Bit rate mode : Constant
Bit rate : 192 Kbps
Channel(s) : 2 channels
Channel positions : Front: L R
Sampling rate : 48.0 KHz
Bit depth : 16 bits
Compression mode : Lossy
Stream size : 119 MiB (17%)
Alignment : Split accross interleaves
Interleave, duration : 40 ms (1.00 video frame)
Interleave, preload duration : 500 ms


Огнестрельные истории (2007) скачать торрент


piratbit.pw



Скачать Огнестрельные истории через торрент http://firepic.org/images/2012-11/20/drdy1pfnhpn8.jpg Скачать фильм Огнестрельные истории через торрент бесплантно в хорошем качестве Описание: История родовой междоусобицы, вспыхнувшей после смерти властного фермера между его сыновьями от разных браков. Посреди хлопковых ... 5 10 1
Info! Золотая раздача, скачанное не засчитывается.
Торрент: Зарегистрирован [2012-11-20 14:38] · скачан: 23 раз
Статус: √ проверено
Размер: 697 MB
Как cкачать? Как скачать Огнестрельные истории через торрент | UTorrent

28-11-2019 20:33  

Отключить всю рекламу на сайте

    Дорогой пользователь! Огромная просьба, поблагодарите релизера, оцените раздачу и оставьте свои комментарий, если Вы скачали Огнестрельные истории через торрент бесплатно! Внесите свою лепту в развитие PiratBit!
    Комментировать посты могут только пользователи прошедшие не сложную регистрацию
    Показать сообщения:    

    Огнестрельные истории через торрент
    Скачать бесплатно Огнестрельные истории
    Огнестрельные истории скачать торрент
    Огнестрельные истории смотреть онлайн
    Cкачать фильм Огнестрельные истории бесплатно
    Огнестрельные истории скачать торрент в хорошем качестве
    Огнестрельные истории смотреть онлайн бесплатно в хорошем качестве


    Вы не можете начинать темы
    Вы не можете отвечать на сообщения
    Вы не можете редактировать свои сообщения
    Вы не можете удалять свои сообщения
    Вы не можете голосовать в опросах
    Вы не можете прикреплять файлы к сообщениям
    Вы можете скачивать файлы