1 сезон

3 сезон

iTunes

1

iTunes

DUB Netflix

iTunes

13

1 сезон

RePack

30

Deluxe

pack

Легкие деньги

ВАЖНО

ИГРА 18+

pack

RePack

MK11

RePack

jed

RePack

fifa19

RePack

RDR2

RePack

NEED FOR SPEED™ PAYBACK

4 сезон

9 сезон

Бесстыжие 9 сезон

Все сериалы

все сериалы на PB.wtf

RePack

FAR CRY 5

Anonymous, добрый вечер, мы не успеваем до 1 числа собрать деньги на оплату серверов, помогите нам пожалуйста в это трудное время. В качестве благодарности мы отключим Вам всю рекламу на сайте (укажите свой ник в строку Ваше имя)!

×
  
Magnet ссылка

Паранойя / Disturbia (Ди Джей Карузо) [2007 г., триллер, драма, детектив, BDRip, DUB, многоголосый, одноголосый] / Hi10P piratbit.pw

Паранойя через торрент piratbit.pw

Качают: 1 [ 0 KB/s ]
Размер: 2.79 GB | Добавлен: 8 лет 7 мес. назад | Торрент скачан:76 раз
Скачать  

17-11-2012 15:33 Паранойя Скачать торрент  

Паранойя / Disturbia

Год выпуска: 2007
Страна: США
Жанр: Триллер, драма, детектив
Продолжительность: 01:44:36
Перевод:
- Профессиональный дублированный
- Многоголосый закадровый
- Одноголосый закадровый
- Оригинал

Режиссер: Ди Джей Карузо
Продюссер: Джеки Маркус, Джо Медьяк, Кваме Паркер
Сценарий: Карл Эллсуорт, Кристофер Б. Лэндон

Мировой рейтинг IMDB 6.90 (124 207)


В ролях: Шайа ЛаБаф, Сара Ремер, Кэрри-Энн Мосс, Дэвид Морс, Аарон Йу, Хосе Пабло Кантилльо, Мэтт Крэвен, Виола Дэвис, Брэндон Карузо, Лучиано Раузо, Илья Хвостиков, Татьяна Шитова, Любовь Германова, Александр Новиков, Александр Комлев

Описание: До автокатастрофы, в которой погиб его отец, жизнь Кейла и его семьи была пригородным раем: счастливая семья, живущая в прекрасном двухэтажном доме на лоне природы. Однако после гибели отца жизнь изменилась. Да еще когда один из школьных учителей Кейла позволит себе бестактную шутку по поводу отца, Кейл ответит ему так, что окажется в суде. Его приговаривают к домашнему аресту: он должен носить на ноге браслет, который сигнализирует полиции, если он отойдет от дома дальше, чем на тридцать метров. Теперь он сходит с ума в собственном доме, пока его мама пытается свести концы с концами, работая почти круглосуточно.Окна его дома становятся его миром. Он не хочет разбираться со своими чувствами, потому что это для него слишком болезненно. Так он начинает смотреть по сторонам, изучать боль и трагедии других людей, формирование и распад их взаимоотношений. И в процессе этого он находит человека, которого он считает убийцей.


Рип в High 10 Profile, в настоящее время не поддерживается большинством аппаратных проигрывателей.
Для корректного воспроизведения может потребоваться обновление ПО.
Владельцам несовместимого железа просьба не беспокоить, на трекере есть/будут альтернативные релизы.

Качество: BDRip
Формат: MKV
Видео кодек: H.264
Аудио кодек: AC3
Видео: H.264, 1024x576 pix., 2 289 Kbps, 23.976 fps, High 10 L5.1
Аудио#1: AC-3, 48.0 KHz, 384 Kbps, 6 channels, 16 bits |Профессиональный дублированный|
Аудио#2: AC-3, 48.0 KHz, 384 Kbps, 6 channels, 16 bits |Многоголосый закадровый, Киномания|
Аудио#3: AC-3, 48.0 KHz, 384 Kbps, 6 channels, 16 bits |Одноголосый закадровый, В. Королев|
Аудио#4: AC-3, 48.0 KHz, 384 Kbps, 6 channels, 16 bits |Оригинал|
Релиз от:



General
Unique ID : 245453036685183335348418668939219973664 (0xB8A8890B56EAB98EB5E4941E57023620)
Complete name : E:BDRip-AVCПаранойя (2007).mkv
Format : Matroska
Format version : Version 2
File size : 2.79 GiB
Duration : 1h 44mn
Overall bit rate mode : Variable
Overall bit rate : 3 824 Kbps
Encoded date : UTC 2012-11-17 14:30:29
Writing application : mkvmerge v5.8.0 ('No Sleep / Pillow') built on Sep 2 2012 15:37:04
Writing library : libebml v1.2.3 + libmatroska v1.3.0

Video
ID : 1
Format : AVC
Format/Info : Advanced Video Codec
Format profile : High 10 L5.1
Format settings, CABAC : Yes
Format settings, ReFrames : 15 frames
Muxing mode : Header stripping
Codec ID : V_MPEG4/ISO/AVC
Duration : 1h 44mn
Bit rate mode : Variable
Bit rate : 2 289 Kbps
Maximum bit rate : 30.0 Mbps
Width : 1 024 pixels
Height : 576 pixels
Display aspect ratio : 16:9
Frame rate mode : Constant
Frame rate : 23.976 fps
Color space : YUV
Chroma subsampling : 4:2:0
Bit depth : 10 bits
Scan type : Progressive
Bits/(Pixel*Frame) : 0.162
Stream size : 1.62 GiB (58%)
Writing library : x264 core 129 r2230 1cffe9f
Encoding settings : cabac=1 / ref=15 / deblock=1:-3:-3 / analyse=0x3:0x133 / me=tesa / subme=9 / psy=1 / psy_rd=1.00:0.15 / mixed_ref=1 / me_range=32 / chroma_me=1 / trellis=1 / 8x8dct=1 / cqm=0 / deadzone=21,11 / fast_pskip=1 / chroma_qp_offset=-3 / threads=4 / lookahead_threads=1 / sliced_threads=0 / nr=0 / decimate=1 / interlaced=0 / bluray_compat=0 / constrained_intra=0 / bframes=10 / b_pyramid=2 / b_adapt=2 / b_bias=0 / direct=3 / weightb=1 / open_gop=0 / weightp=2 / keyint=230 / keyint_min=23 / scenecut=40 / intra_refresh=0 / rc_lookahead=50 / rc=2pass / mbtree=1 / bitrate=2289 / ratetol=2.0 / qcomp=0.60 / qpmin=0 / qpmax=51 / qpstep=4 / cplxblur=20.0 / qblur=0.5 / vbv_maxrate=30000 / vbv_bufsize=62500 / nal_hrd=vbr / ip_ratio=1.40 / aq=1:1.00
Language : English
Default : Yes
Forced : No
Color primaries : BT.709
Transfer characteristics : BT.709
Matrix coefficients : BT.709

Audio #1
ID : 2
Format : AC-3
Format/Info : Audio Coding 3
Mode extension : CM (complete main)
Format settings, Endianness : Big
Muxing mode : Header stripping
Codec ID : A_AC3
Duration : 1h 44mn
Bit rate mode : Constant
Bit rate : 384 Kbps
Channel(s) : 6 channels
Channel positions : Front: L C R, Side: L R, LFE
Sampling rate : 48.0 KHz
Bit depth : 16 bits
Compression mode : Lossy
Stream size : 287 MiB (10%)
Title : |Профессиональный дублированный|
Language : Russian
Default : No
Forced : No

Audio #2
ID : 3
Format : AC-3
Format/Info : Audio Coding 3
Mode extension : CM (complete main)
Format settings, Endianness : Big
Muxing mode : Header stripping
Codec ID : A_AC3
Duration : 1h 44mn
Bit rate mode : Constant
Bit rate : 384 Kbps
Channel(s) : 6 channels
Channel positions : Front: L C R, Side: L R, LFE
Sampling rate : 48.0 KHz
Bit depth : 16 bits
Compression mode : Lossy
Stream size : 287 MiB (10%)
Title : |Многоголосый закадровый, Киномания|
Language : Russian
Default : Yes
Forced : No

Audio #3
ID : 4
Format : AC-3
Format/Info : Audio Coding 3
Mode extension : CM (complete main)
Format settings, Endianness : Big
Muxing mode : Header stripping
Codec ID : A_AC3
Duration : 1h 44mn
Bit rate mode : Constant
Bit rate : 384 Kbps
Channel(s) : 6 channels
Channel positions : Front: L C R, Side: L R, LFE
Sampling rate : 48.0 KHz
Bit depth : 16 bits
Compression mode : Lossy
Stream size : 287 MiB (10%)
Title : |Одноголосый закадровый, В.Королев|
Language : Russian
Default : No
Forced : No

Audio #4
ID : 5
Format : AC-3
Format/Info : Audio Coding 3
Mode extension : CM (complete main)
Format settings, Endianness : Big
Muxing mode : Header stripping
Codec ID : A_AC3
Duration : 1h 44mn
Bit rate mode : Constant
Bit rate : 384 Kbps
Channel(s) : 6 channels
Channel positions : Front: L C R, Side: L R, LFE
Sampling rate : 48.0 KHz
Bit depth : 16 bits
Compression mode : Lossy
Stream size : 287 MiB (10%)
Language : English
Default : No
Forced : No

Text #1
ID : 6
Format : UTF-8
Codec ID : S_TEXT/UTF8
Codec ID/Info : UTF-8 Plain Text
Language : English
Default : No
Forced : No

Text #2
ID : 7
Format : UTF-8
Codec ID : S_TEXT/UTF8
Codec ID/Info : UTF-8 Plain Text
Language : Russian
Default : No
Forced : No


Паранойя скачать торрент


piratbit.pw



Скачать Паранойя через торрент http://i47.fastpic.ru/big/2012/1117/ac/ad4e446595b5b31bae4c6c1ac1da3dac.png Скачать фильм Паранойя через торрент бесплантно в хорошем качестве Описание: До автокатастрофы, в которой погиб его отец, жизнь Кейла и его семьи была пригородным раем: счастливая семья, живущая в ... 5 10 1
Info! Золотая раздача, скачанное не засчитывается.
Торрент: Зарегистрирован [2012-11-17 15:33] · скачан: 76 раз
Статус: √ проверено
Размер: 2.79 GB
Как cкачать? Как скачать Паранойя через торрент | UTorrent

28-11-2019 20:33  

Отключить всю рекламу на сайте


17-11-2012 17:31 Паранойя Скачать торрент  

прикольно, только вчера смотрел этот фильм :)piratbit.pw



    Дорогой пользователь! Огромная просьба, поблагодарите релизера, оцените раздачу и оставьте свои комментарий, если Вы скачали Паранойя через торрент бесплатно! Внесите свою лепту в развитие PiratBit!
    Комментировать посты могут только пользователи прошедшие не сложную регистрацию
    Показать сообщения:    

    Паранойя через торрент
    Скачать бесплатно Паранойя
    Паранойя скачать торрент
    Паранойя смотреть онлайн
    Cкачать фильм Паранойя бесплатно
    Паранойя скачать торрент в хорошем качестве
    Паранойя смотреть онлайн бесплатно в хорошем качестве


    Вы не можете начинать темы
    Вы не можете отвечать на сообщения
    Вы не можете редактировать свои сообщения
    Вы не можете удалять свои сообщения
    Вы не можете голосовать в опросах
    Вы не можете прикреплять файлы к сообщениям
    Вы можете скачивать файлы