1 сезон

3 сезон

iTunes

1

iTunes

DUB Netflix

iTunes

13

1 сезон

RePack

30

Deluxe

pack

Легкие деньги

ВАЖНО

ИГРА 18+

pack

RePack

MK11

RePack

jed

RePack

fifa19

RePack

RDR2

RePack

NEED FOR SPEED™ PAYBACK

4 сезон

9 сезон

Бесстыжие 9 сезон

Все сериалы

все сериалы на PB.wtf

RePack

FAR CRY 5

Anonymous, доброй ночи, мы не успеваем до 1 числа собрать деньги на оплату серверов, помогите нам пожалуйста в это трудное время. В качестве благодарности мы отключим Вам всю рекламу на сайте (укажите свой ник в строку Ваше имя)!

×
  
Magnet ссылка

Не вижу зла / See No Evil (Грегори Дарк) [2006 г., ужасы, триллер, HDRip, DUB] piratbit.pw

Не вижу зла через торрент piratbit.pw

Размер: 743 MB | Добавлен: 8 лет 7 мес. назад | Торрент скачан:100 раз
Скачать  

16-11-2012 16:48 Не вижу зла Скачать торрент  

Не вижу зла / See No Evil

Год выпуска: 2006
Страна: США
Жанр: ужасы, триллер
Продолжительность: 01:23:59
Перевод: Дубляж

Режиссер: Грегори Дарк

Бюджет: $8 000 000
Премьера в мире: 18 мая 2006



В ролях: Глен Джейкобс, Кристина Видал, Майкл Дж. Паган, Саманта Ноубл, Стивен Видлер, Сесиль Полсон, Люк Пеглер, Рэйчел Тейлор, Пенни МакНэми, Крэйг Хорнер

Описание: В заброшенном, обветшалом отеле обитает психопат-отшельник Джекоб Гуднайт, в череп которого вставлена стальная пластина. Этот двухметровый верзила весом 180 кг вырывает глаза своим жертвам острыми, как бритва, ногтями…
Однажды в жилище Джекоба вторгаются восемь юных правонарушителей, отправленных приводить в порядок эту богом забытую гостиницу; за ними присматривает полицейский, который четыре года назад пустил Джекобу пулю в лоб. Когда же маньяк похищает девушку, входившую в состав группы, и ее жизнь оказывается под угрозой, остальным ребятам приходится приложить все свои силы для борьбы с неуязвимым злодеем…

Качество: HDRip
Формат: AVI
Видео кодек: XviD
Аудио кодек: MP3
Видео: 656x368 (1.78:1), 23.976 fps, XviD build 50 ~1099 kbps avg, 0.19 bit/pixel
Аудио: 48 kHz, MPEG Layer 3, 2 ch, ~128.00 kbps avg

[/url]















Полное имя : D:Не вижу зла See No Evil (2006) HDRipNe.Vizhu.Zla.2006.HDRip.avi
Формат : AVI
Формат/Информация : Audio Video Interleave
Размер файла : 743 Мбайт
Продолжительность : 1 ч. 23 м.
Общий поток : 1237 Кбит/сек
Программа кодирования : VirtualDubMod 1.5.10.2 (build 2540/release)
Библиотека кодирования : VirtualDubMod build 2540/release

Видео
Идентификатор : 0
Формат : MPEG-4 Visual
Профиль формата : Advanced Simple@L5
Параметр BVOP формата : 1
Параметр QPel формата : Нет
Параметр GMC формата : Без точки перехода
Параметр матрицы формата : Выборочная
Идентификатор кодека : XVID
Идентификатор кодека/Подсказка : XviD
Продолжительность : 1 ч. 23 м.
Битрейт : 1100 Кбит/сек
Ширина : 656 пикселей
Высота : 368 пикселей
Соотношение сторон : 16:9
Частота кадров : 23,976 кадра/сек
Цветовое пространство : YUV
Субдискретизация насыщенности : 4:2:0
Битовая глубина : 8 бит
Тип развёртки : Прогрессивная
Метод сжатия : С потерями
Бит/(Пиксели*Кадры) : 0.190
Размер потока : 661 Мбайт (89%)
Библиотека кодирования : XviD 1.2.1 (UTC 2008-12-04)

Аудио
Идентификатор : 1
Формат : MPEG Audio
Версия формата : Version 1
Профиль формата : Layer 3
Идентификатор кодека : 55
Идентификатор кодека/Подсказка : MP3
Продолжительность : 1 ч. 23 м.
Вид битрейта : Постоянный
Битрейт : 128 Кбит/сек
Каналы : 2 канала
Частота : 48,0 КГц
Метод сжатия : С потерями
Размер потока : 76,9 Мбайт (10%)
Выравнивание : Соединение по промежуткам
Продолжительность промежутка : 42 мс. (1,00 видеокадр)
Время предзагрузки промежутка : 504 мс.
Библиотека кодирования : LAME3.98r
Настройки программы : -m s -V 4 -q 2 -lowpass 17 -b 128


Не вижу зла скачать торрент


piratbit.pw



Скачать Не вижу зла через торрент http://2.firepic.org/2/images/2012-11/16/ch3d7oyp60xp.jpg Скачать фильм Не вижу зла через торрент бесплантно в хорошем качестве Описание: В заброшенном, обветшалом отеле обитает психопат-отшельник Джекоб Гуднайт, в череп которого вставлена стальная пластина. Этот ... 5 10 1
Info! Золотая раздача, скачанное не засчитывается.
Торрент: Зарегистрирован [2012-11-16 16:48] · скачан: 100 раз
Статус: √ проверено
Размер: 743 MB
Как cкачать? Как скачать Не вижу зла через торрент | UTorrent

% Раздел Тема Автор DL S | L
Фильмы 2014 [DVDrip, WEB-DLRip, HDrip] [ 1.86 GB ] Не вижу зла 2 / See No Evil 2 [2014 BDRip-AVC MVO VO] winchester00100010 Скачать
1 | 0
Фильмы 2006-2008 [ 2.31 GB ] Не вижу зла / See No Evil [2006 BDRip-AVC ] winchester00100010 Скачать
1 | 0
Фильмы (Blu-ray, BD-Remux, HDDVD) [ 16.81 GB ] Не вижу зла 2 / See No Evil 2 [2014 BDRemux 1080p] MVO Ворон Скачать
1 | 0
Фильмы [HD 720p, 1080p] (Хороший звук DUB, MVO) [ 4.7 GB ] Не вижу зла 2 / See No Evil 2 [2014 BDRip 720p Любительский многоголосый] TeSo33 Скачать
1 | 0
Фильмы 2014 [DVDrip, WEB-DLRip, HDrip] [ 1.44 GB ] Не вижу зла 2 / See No Evil 2 [2014 HDRip MVO] Ворон Скачать
1 | 0
T Фильмы 2014 (Звук TS, Cam, VO, DVO) [ 1.27 GB ] Не вижу зла 2 / See No Evil 2 [2014 HDRip Любительский [МЕГАПЫХАРЬ] GEKADOL Скачать
1 | 0
Фильмы 2006-2008 [ 1.45 GB ] Не вижу зла / See No Evil [2006 BDRip] GEKADOL Скачать
1 | 0


Последний раз редактировалось: JhaWithYou (2012-11-24 16:50), всего редактировалось 2 раз(а)

28-11-2019 20:33  

Отключить всю рекламу на сайте

16-11-2012 20:46 Не вижу зла Скачать торрент  

слишком много в описании написано, грубо говоря пол фильма..
ну а так норм кинцо, давно смотрел еще :good:piratbit.pw



    Дорогой пользователь! Огромная просьба, поблагодарите релизера, оцените раздачу и оставьте свои комментарий, если Вы скачали Не вижу зла через торрент бесплатно! Внесите свою лепту в развитие PiratBit!
    Комментировать посты могут только пользователи прошедшие не сложную регистрацию
    Показать сообщения:    

    Не вижу зла через торрент
    Скачать бесплатно Не вижу зла
    Не вижу зла скачать торрент
    Не вижу зла смотреть онлайн
    Cкачать фильм Не вижу зла бесплатно
    Не вижу зла скачать торрент в хорошем качестве
    Не вижу зла смотреть онлайн бесплатно в хорошем качестве


    Вы не можете начинать темы
    Вы не можете отвечать на сообщения
    Вы не можете редактировать свои сообщения
    Вы не можете удалять свои сообщения
    Вы не можете голосовать в опросах
    Вы не можете прикреплять файлы к сообщениям
    Вы можете скачивать файлы