1 сезон

1 сезон

iTunes

1

КиноПоиск HD

Кинопоиск HD

iTunes

13

1 сезон

RePack

30

Deluxe

ВАЖНО

ИГРА 18+

pack

RePack

MK11
pack

Легкие деньги

RePack

jed

RePack

fifa19

RePack

RDR2

RePack

NEED FOR SPEED™ PAYBACK

4 сезон

9 сезон

Бесстыжие 9 сезон

Все сериалы

все сериалы на PB.wtf

RePack

FAR CRY 5
  
Magnet ссылка

Суперпес / Underdog (Фредерик Ду Чау) [2007 г., фантастика, фэнтези, боевик, комедия, приключения, семейный, HDRip-AVC, DUB + Оригинал] piratbit.pw

Суперпес через торрент piratbit.pw

Размер: 2.04 GB | Добавлен: 8 лет 5 мес. назад | Торрент скачан:161 раз
Скачать  

14-11-2012 07:45 Суперпес Скачать торрент  

Суперпес / Underdog

: 2007
: США
: фантастика, фэнтези, боевик, комедия, приключения, семейный
: 01:24:00
: Дубляж + Оригинал

: Фредерик Ду Чау





: Джейсон Ли, Питер Динклэйдж, Джеймс Белуши, Патрик Варбертон, Алекс Нойбергер, Тейлор Момсен, Джон Слэттери, Эми Адамс, Брэд Гэррет, Саманта Би

: Пес по кличке «Блеск» однажды угодил в недра секретной лаборатории и в результате стал первой на земле собакой, наделенной сверхсобачьими силами. В обычной жизни — он все та же самая добродушная псина, души не чающая в своем хозяине Джеке. Но стоит где-то поблизости произойти преступлению, и старина Блеск тут же превращается в Суперпса, героя в обтягивающем красном трико и с развевающимся синим плащом за спиной.

: HDRip-AVC
: MKV
: H.264
: AC3
: 720 x 304 (2,35:1),23,976fps, AVC MPEG-4 (H.264), ~2722 kbps avg,0.519 bit/pixel
: русский 48 kHz, AC3 Dolby Digital, 3/2 (L,C,R,l,r) + LFE ch, ~384 kbps avg Дубляж
: английский 48 kHz, AC3 Dolby Digital, 3/2 (L,C,R,l,r) + LFE ch, ~384 kbps avg Оригинал
Релиз от:






Общее
Уникальный идентификатор : 177929248240252904704759743148679728021 (0x85DBED3D50481E8385F3FE70C5978B95)
Полное имя : E:ТоррентыPiratbitSyperpes.mkv
Формат : Matroska
Версия формата : Version 2
Размер файла : 2,04 Гбайт
Продолжительность : 1 ч. 21 м.
Общий поток : 3560 Кбит/сек
Дата кодирования : UTC 2012-11-13 16:05:00
Программа кодирования : mkvmerge v4.4.0 ('Die Wiederkehr') сборка от Oct 31 2010 21:52:48
Библиотека кодирования : libebml v1.0.0 + libmatroska v1.0.0

Видео
Идентификатор : 1
Формат : AVC
Формат/Информация : Advanced Video Codec
Профиль формата : High@L4.1
Параметр CABAC формата : Да
Параметр ReFrames формата : 8 кадров
Режим смешивания : Header stripping
Идентификатор кодека : V_MPEG4/ISO/AVC
Продолжительность : 1 ч. 21 м.
Битрейт : 2722 Кбит/сек
Номинальный битрейт : 2870 Кбит/сек
Ширина : 720 пикселей
Высота : 304 пикселя
Соотношение сторон : 2,35:1
Частота кадров : 23,976 кадра/сек
Цветовое пространство : YUV
Субдискретизация насыщенности : 4:2:0
Битовая глубина : 8 бит
Тип развёртки : Прогрессивная
Бит/(Пиксели*Кадры) : 0.519
Размер потока : 1,56 Гбайт (76%)
Библиотека кодирования : x264 core 125 r2200 999b753
Настройки программы : cabac=1 / ref=8 / deblock=1:0:0 / analyse=0x3:0x113 / me=hex / subme=7 / psy=1 / psy_rd=1.00:0.00 / mixed_ref=1 / me_range=16 / chroma_me=1 / trellis=1 / 8x8dct=1 / cqm=0 / deadzone=21,11 / fast_pskip=1 / chroma_qp_offset=-2 / threads=6 / lookahead_threads=1 / sliced_threads=0 / nr=0 / decimate=1 / interlaced=0 / bluray_compat=0 / constrained_intra=0 / bframes=8 / b_pyramid=2 / b_adapt=1 / b_bias=0 / direct=1 / weightb=1 / open_gop=0 / weightp=2 / keyint=250 / keyint_min=23 / scenecut=40 / intra_refresh=0 / rc_lookahead=40 / rc=abr / mbtree=1 / bitrate=2870 / ratetol=1.0 / qcomp=0.60 / qpmin=0 / qpmax=69 / qpstep=4 / ip_ratio=1.40 / aq=1:1.00
Default : Да
Forced : Нет

Аудио #1
Идентификатор : 2
Формат : AC-3
Формат/Информация : Audio Coding 3
Расширение режима : CM (complete main)
Параметр Endianness формата : Big
Режим смешивания : Header stripping
Идентификатор кодека : A_AC3
Продолжительность : 1 ч. 21 м.
Вид битрейта : Постоянный
Битрейт : 384 Кбит/сек
Каналы : 6 каналов
Расположение каналов : Front: L C R, Side: L R, LFE
Частота : 48,0 КГц
Битовая глубина : 16 бит
Метод сжатия : С потерями
Размер потока : 225 Мбайт (11%)
Язык : Russian
Default : Да
Forced : Нет

Аудио #2
Идентификатор : 3
Формат : AC-3
Формат/Информация : Audio Coding 3
Расширение режима : CM (complete main)
Параметр Endianness формата : Big
Режим смешивания : Header stripping
Идентификатор кодека : A_AC3
Продолжительность : 1 ч. 21 м.
Вид битрейта : Постоянный
Битрейт : 384 Кбит/сек
Каналы : 6 каналов
Расположение каналов : Front: L C R, Side: L R, LFE
Частота : 48,0 КГц
Битовая глубина : 16 бит
Метод сжатия : С потерями
Размер потока : 225 Мбайт (11%)
Язык : English
Default : Нет
Forced : Нет


Суперпес скачать торрент


piratbit.pw



Скачать Суперпес через торрент https://pic1.kartinco.top/images/111/emtow7oc4d.png Скачать фильм Суперпес через торрент бесплантно в хорошем качестве Суперпес / Underdog : 2007 : США : фантастика, фэнтези, боевик, комедия, приключения, семейный : 01:24:00 : Дубляж + Оригинал : ... 10 10 3
Info! Золотая раздача, скачанное не засчитывается.
Торрент: Зарегистрирован [2012-11-14 07:45] · скачан: 161 раз
Статус: √ проверено
Размер: 2.04 GB
Как cкачать? Как скачать Суперпес через торрент | UTorrent

28-11-2019 20:33  

Отключить всю рекламу на сайте

    Дорогой пользователь! Огромная просьба, поблагодарите релизера, оцените раздачу и оставьте свои комментарий, если Вы скачали Суперпес через торрент бесплатно! Внесите свою лепту в развитие PiratBit!
    Комментировать посты могут только пользователи прошедшие не сложную регистрацию
    Показать сообщения:    

    Суперпес через торрент
    Скачать бесплатно Суперпес
    Суперпес скачать торрент
    Суперпес смотреть онлайн
    Cкачать фильм Суперпес бесплатно
    Суперпес скачать торрент в хорошем качестве
    Суперпес смотреть онлайн бесплатно в хорошем качестве


    Вы не можете начинать темы
    Вы не можете отвечать на сообщения
    Вы не можете редактировать свои сообщения
    Вы не можете удалять свои сообщения
    Вы не можете голосовать в опросах
    Вы не можете прикреплять файлы к сообщениям
    Вы можете скачивать файлы