1 сезон

1 сезон

iTunes

1

КиноПоиск HD

Кинопоиск HD

iTunes

13

1 сезон

RePack

30

Новинка

ВАЖНО

ИГРА 18+

pack

RePack

MK11
pack

Легкие деньги

RePack

jed

RePack

fifa19

RePack

RDR2

RePack

NEED FOR SPEED™ PAYBACK

4 сезон

9 сезон

Бесстыжие 9 сезон

Все сериалы

все сериалы на PB.wtf

RePack

FAR CRY 5
  
Magnet ссылка

Диктатор / The Dictator (Ларри Чарльз / Larry Charles) [2012, комедия, BDRip-AVC] [Расширенная версия] AVO [А. Карповский] piratbit.pw

Диктатор через торрент piratbit.pw

Размер: 1.46 GB | Добавлен: 3 года 1 мес. назад | Торрент скачан:178 раз
Скачать  

13-11-2012 17:37 Диктатор Скачать торрент  

Диктатор
The Dictator

Расширенная версия / Unrated


Страна: США
Жанр: комедия

Год выпуска: 2012
Продолжительность: 01:38:50

Перевод: Авторский (одноголосый, закадровый) [Антон Карповский]
Субтитры: русские (форсированные x2, полные x3)
Оригинальная аудиодорожка: нет

Режиссер: Ларри Чарльз / Larry Charles

В ролях: Саша Барон Коэн, Анна Фэрис, Бен Кингсли, Джейсон Манцукас, Бобби Ли, Кевин Корригэн, Кэтрин Хан, Сет Моррис, Адиль Ахтар, Джон Си Райли, Саид Бадрия, Роки Ситрон

Описание:
Героическая история диктатора, который рискует своей жизнью, чтобы ни в коем случае не допустить демократию в свою столь любовно угнетаемую страну.



Релиз:

Автор рипа: stalkerok | Моя группа

Сэмпл

Качество видео: BDRip-AVC [Blu-Ray Remux 1080p / balamut2010 / kinozal]
Формат видео: MKV
Видео кодек: AVC
Аудио кодек: AC3
Видео: AVC, 1669 Кбит/сек, 1080x450 (2.40:1), 23,976 кадр/сек
Аудио: AC3, 448 Кбит/сек, 48 КГц, 5.1 - русский
Навигация по главам: есть

Отдельно
Аудио #2: AC3, 448 Кбит/сек, 48 КГц, 5.1 - русский | Антон Киреев
Аудио #3: AC3, 448 Кбит/сек, 48 КГц, 5.1 - русский | Михаил Чадов
Аудио #4: AC3, 448 Кбит/сек, 48 КГц, 5.1 - русский | Е. Черемисинов

За перевод, данного фильма у Антона Карповского, выражается благодарность следующим людям: Wolf_Larsen, _48ronin_, Alexbeer, feldeger, vadamk, pestel, ZombX, Slimka, zetrob, shitman82, creata, SavineX, mihey10, therox, fandvd, Guyver, dunhill200, eyrobot, arvideo, zeleniydzhan, patek philippe, Ace34, KINOGON, _long_, nikson50, psplinter.
Антон Киреев по переводу Дмитрия "Goblina" Пучкова. Без цензуры! Тайпсеттер: Антон Киреев. Перевод расширенных моментов и работа со звуком: Perevodman.
Михаил Чадов: Без цензуры! Работа со звуком: Perevodman. Перевод доступн благодаря: Ladypunk, timyrovecTM, ozar, hintoz, korvet77, okzm, qwertyuiopaspas, zloy_кeкs, ZeDOK, ana2363, СЕРДЖ84, Atherix, roman-sun, будулайроманов.
Е. Черемисинов по переводу Дмитрия "Goblina" Пучкова.
---[Information] [02.03.2018 17:43:07] x264 [info]: frame I:1568 Avg QP:17.04 size: 63883
---[Information] [02.03.2018 17:43:07] x264 [info]: frame P:30955 Avg QP:18.90 size: 18237
---[Information] [02.03.2018 17:43:07] x264 [info]: frame B:109583 Avg QP:21.58 size: 5218

Общее
Уникальный идентификатор : 247394993088563114255169081571085015307 (0xBA1E8AE31EADAF52839244DAF972590B)
Полное имя : V:\!Rips\The Dictator (2012)\NEW\The.Dictator.2012.BDRip-AVC.AVO.RUS.stalkerok.new-team.mkv
Формат : Matroska
Версия формата : Version 4 / Version 2
Размер файла : 1,46 Гбайт
Продолжительность : 1 ч. 38 м.
Общий поток : 2118 Кбит/сек
Название фильма : The Dictator (2012) (Rip by stalkerok)
Дата кодирования : UTC 2018-03-11 10:23:17
Программа кодирования : mkvmerge v8.6.1 ('Flying') 64bit
Библиотека кодирования : libebml v1.3.3 + libmatroska v1.4.4

Видео
Идентификатор : 1
Формат : AVC
Формат/Информация : Advanced Video Codec
Профиль формата : High@L4.1
Параметр CABAC формата : Да
Параметр ReFrames формата : 12 кадров
Идентификатор кодека : V_MPEG4/ISO/AVC
Продолжительность : 1 ч. 38 м.
Битрейт : 1669 Кбит/сек
Ширина : 1080 пикселей
Высота : 450 пикселей
Соотношение сторон : 2,40:1
Режим частоты кадров : Постоянный
Частота кадров : 23,976 (24000/1001) кадра/сек
Цветовое пространство : YUV
Субдискретизация насыщенности : 4:2:0
Битовая глубина : 8 бит
Тип развёртки : Прогрессивная
Бит/(Пиксели*Кадры) : 0.143
Размер потока : 1,15 Гбайт (79%)
Заголовок : The Dictator (2012) (Rip by stalkerok)
Библиотека кодирования : x264 core 152 r2851kMod ba24899
Настройки программы : cabac=1 / ref=12 / deblock=1:-3:-2 / analyse=0x3:0x133 / me=umh / subme=11 / psy=1 / fade_compensate=0.00 / psy_rd=1.00:0.00 / mixed_ref=1 / me_range=32 / chroma_me=1 / trellis=2 / 8x8dct=1 / cqm=0 / deadzone=21,11 / fast_pskip=0 / chroma_qp_offset=-2 / threads=12 / lookahead_threads=3 / sliced_threads=0 / nr=0 / decimate=1 / interlaced=0 / bluray_compat=0 / constrained_intra=0 / bframes=15 / b_pyramid=2 / b_adapt=2 / b_bias=0 / direct=3 / weightb=1 / open_gop=0 / weightp=2 / keyint=240 / keyint_min=23 / scenecut=40 / intra_refresh=0 / rc_lookahead=60 / rc=crf / mbtree=0 / crf=18.4000 / qcomp=0.65 / qpmin=0 / qpmax=69 / qpstep=4 / vbv_maxrate=50000 / vbv_bufsize=62500 / crf_max=0.0 / nal_hrd=none / filler=0 / ip_ratio=1.40 / pb_ratio=1.30 / aq=3:0.80 / zones=132426,142105,q=34
Default : Да
Forced : Нет

Аудио
Идентификатор : 2
Формат : AC-3
Формат/Информация : Audio Coding 3
Расширение режима : CM (complete main)
Параметр Endianness формата : Big
Идентификатор кодека : A_AC3
Продолжительность : 1 ч. 38 м.
Вид битрейта : Постоянный
Битрейт : 448 Кбит/сек
Каналы : 6 каналов
Расположение каналов : Front: L C R, Side: L R, LFE
Частота : 48,0 КГц
Частота кадров : 31,250 кадров/сек (1536 spf)
Метод сжатия : С потерями
Размер потока : 317 Мбайт (21%)
Заголовок : Антон Карповский
Язык : Russian
Default : Да
Forced : Нет

Текст #1
Идентификатор : 3
Формат : UTF-8
Идентификатор кодека : S_TEXT/UTF8
Идентификатор кодека/Информация : UTF-8 Plain Text
Продолжительность : 1 ч. 27 м.
Битрейт : 0 бит/сек
Count of elements : 4
Размер потока : 110 байт (0%)
Заголовок : Forced
Язык : Russian
Default : Да
Forced : Нет

Текст #2
Идентификатор : 4
Формат : UTF-8
Идентификатор кодека : S_TEXT/UTF8
Идентификатор кодека/Информация : UTF-8 Plain Text
Продолжительность : 1 ч. 30 м.
Битрейт : 32 бит/сек
Count of elements : 397
Размер потока : 21,8 Кбайт (0%)
Заголовок : Forced (расширенные эпизоды, титры)
Язык : Russian
Default : Нет
Forced : Нет

Текст #3
Идентификатор : 5
Формат : UTF-8
Идентификатор кодека : S_TEXT/UTF8
Идентификатор кодека/Информация : UTF-8 Plain Text
Продолжительность : 1 ч. 31 м.
Битрейт : 124 бит/сек
Count of elements : 1577
Размер потока : 83,1 Кбайт (0%)
Заголовок : Дмитрий "Goblin" Пучков
Язык : Russian
Default : Нет
Forced : Нет

Текст #4
Идентификатор : 6
Формат : UTF-8
Идентификатор кодека : S_TEXT/UTF8
Идентификатор кодека/Информация : UTF-8 Plain Text
Продолжительность : 1 ч. 38 м.
Битрейт : 123 бит/сек
Count of elements : 1315
Размер потока : 89,1 Кбайт (0%)
Заголовок : Евгений Воронин
Язык : Russian
Default : Нет
Forced : Нет

Текст #5
Идентификатор : 7
Формат : UTF-8
Идентификатор кодека : S_TEXT/UTF8
Идентификатор кодека/Информация : UTF-8 Plain Text
Продолжительность : 1 ч. 38 м.
Битрейт : 125 бит/сек
Count of elements : 1598
Размер потока : 90,2 Кбайт (0%)
Заголовок : Notabenoid
Язык : Russian
Default : Нет
Forced : Нет

Меню
00:00:00.000 : en:Chapter 00
00:09:41.038 : en:Chapter 01
00:14:36.875 : en:Chapter 02
00:22:35.770 : en:Chapter 03
00:27:06.207 : en:Chapter 04
00:32:42.376 : en:Chapter 05
00:38:42.278 : en:Chapter 06
00:45:23.553 : en:Chapter 07
00:49:48.276 : en:Chapter 08
01:01:58.464 : en:Chapter 09
01:09:39.758 : en:Chapter 10
01:16:51.731 : en:Chapter 11
01:21:51.906 : en:Chapter 12
01:28:48.656 : en:Chapter 13
скриншот   скриншот   скриншот   скриншот   скриншот   скриншот   скриншот  
piratbit.pw



Скачать Диктатор через торрент http://i6.imageban.ru/out/2017/09/18/2ff75c0c358795c5946784cc1680714d.png Скачать фильм Диктатор через торрент бесплантно в хорошем качестве Описание:Героическая история диктатора, который рискует своей жизнью, чтобы ни в коем случае не допустить демократию в свою столь любовно ... 8.7 10 15
Info! Золотая раздача, скачанное не засчитывается.
Торрент: Зарегистрирован [2018-03-11 10:41] · скачан: 178 раз
Статус: √ проверено
Размер: 1.46 GB
Как cкачать? Как скачать Диктатор через торрент | UTorrent

% Раздел Тема Автор DL S | L
Фильмы с авторской озвучкой [ 746 MB ] Диктатор / The Dictator [2012 BDRip-AVC] [Расширенная версия] AVO [А. Карповский] sokol_ok Скачать
2 | 0
Фильмы с авторской озвучкой [ 3.17 GB ] Диктатор / The Dictator [2012 BDRip-AVC] [Расширенная версия] AVO [А. Карповский А. Киреев М. Чадов] + VO [Е. Черемисинов] sokol_ok Скачать
2 | 0
Фильмы [HD 720p, 1080p] (Хороший звук DUB, MVO) [ 5.61 GB ] Диктатор / The Dictator [2012 BDRip 720 DUB ] Ворон Скачать
1 | 0
Фильмы 2012 [ 1.45 GB ] Диктатор / The Dictator / 2012 / HDRip [ DUB [ лицензия ] Ворон Скачать
1 | 0
Фильмы (HD 720p, 1080p) (48-60 fps) [ 13.01 GB ] Великий диктатор / The Great Dictator [1940 военный BDRip 1080p / 60 FPS многоголосый] Tiberiumsun69 Скачать
1 | 0
Фильмы [HD 720p, 1080p] (Хороший звук DUB, MVO) [ 5.61 GB ] Диктатор / The Dictator [2012 BDRip 720 DUB ] DEVI Скачать
1 | 0
Фильмы 2012 [ 700 MB ] Диктатор / The Dictator [2012 BDRip-AVC DUB лицензия] rulya74 Скачать
1 | 0


Последний раз редактировалось: sokol_ok (2018-03-11 11:18), всего редактировалось 3 раз(а)

28-11-2019 20:33  

Отключить всю рекламу на сайте

17-10-2013 12:10 Диктатор Скачать торрент  

Привет всем, а где скорость?piratbit.pw



02-11-2013 21:57 Диктатор Скачать торрент  

спасибо большое!piratbit.pw



16-11-2015 21:06 Диктатор Скачать торрент  

РАЗДАЧУ!заранее спасибоpiratbit.pw



25-07-2016 07:32 Диктатор Скачать торрент  

только скачал тут же письмо пришло Уважаемый абонент !

Ставим вас в известность, что на Вас получена жалоба о нарушении
Вами международных авторских прав при использовании торрент-клиента.
Рекомендуем удалить раздачу.piratbit.pw



03-03-2018 15:27 Диктатор Скачать торрент  

Замена на релиз лучшего качества.piratbit.pw



03-03-2018 15:36 Диктатор Скачать торрент  

Топик был перенесен из форума Фильмы 2012 в форум Фильмы с авторской озвучкой


bober100piratbit.pw



11-03-2018 10:42 Диктатор Скачать торрент  

Замена дорожки Карповского.piratbit.pw



12-03-2018 13:42 Диктатор Скачать торрент  

сисько-писечные шуткиpiratbit.pw



    Дорогой пользователь! Огромная просьба, поблагодарите релизера, оцените раздачу и оставьте свои комментарий, если Вы скачали Диктатор через торрент бесплатно! Внесите свою лепту в развитие PiratBit!
    Комментировать посты могут только пользователи прошедшие не сложную регистрацию
    Показать сообщения:    

    Диктатор через торрент
    Скачать бесплатно Диктатор
    Диктатор скачать торрент
    Диктатор смотреть онлайн
    Cкачать фильм Диктатор бесплатно
    Диктатор скачать торрент в хорошем качестве
    Диктатор смотреть онлайн бесплатно в хорошем качестве


    Вы не можете начинать темы
    Вы не можете отвечать на сообщения
    Вы не можете редактировать свои сообщения
    Вы не можете удалять свои сообщения
    Вы не можете голосовать в опросах
    Вы не можете прикреплять файлы к сообщениям
    Вы можете скачивать файлы