1 сезон

3 сезон

iTunes

1

iTunes

DUB Netflix

iTunes

13

1 сезон

RePack

30

Deluxe

pack

Легкие деньги

ВАЖНО

ИГРА 18+

pack

RePack

MK11

RePack

jed

RePack

fifa19

RePack

RDR2

RePack

NEED FOR SPEED™ PAYBACK

4 сезон

9 сезон

Бесстыжие 9 сезон

Все сериалы

все сериалы на PB.wtf

RePack

FAR CRY 5

Anonymous, доброе утро, мы не успеваем до 1 числа собрать деньги на оплату серверов, помогите нам пожалуйста в это трудное время. В качестве благодарности мы отключим Вам всю рекламу на сайте (укажите свой ник в строку Ваше имя)!

×
  
Magnet ссылка

Дикая грация / Savage Grace (Том Кэлин) [2007 г., драма, DVDRip, MVO] piratbit.pw

Дикая грация через торрент piratbit.pw

Размер: 1.45 GB | Добавлен: 8 лет 7 мес. назад | Торрент скачан:71 раз
Скачать  

13-11-2012 12:20 Дикая грация Скачать торрент  

Дикая грация / Savage Grace

Год выпуска: 2007
Страна: США, Франция, Испания
Жанр: драма
Продолжительность: 01:33:35
Перевод: Профессиональный многоголосый
Субтитры: Отсутствуют

Режиссер: Том Кэлин
Продюссер: Памела Коффлер, Икер Монфор, Кэти Роумел
Сценарий: Ховард А. Родман, Натали Робинс, Steven M.L. Aronson

Мировой рейтинг IMDB 5.70 (5 558)


В ролях: Джулианна Мур, Стивен Диллэйн, Эдди Редмэйн, Энн Рейд, Мартин Хубер, Минни Маркс, Джим Арнольд, Мапи Галан, Барни Кларк, Абель Фолк

Описание: История фильма основанного на реальной истории, события которой разворачивались в Лондоне 1972 года. Молодая красавица Барбара Дэйли выходит замуж за богатого промышленника и наследника огромного состояния. Супружеская пара вращается в высших кругах общества, не отказывая себе во всевозможных удовольствиях. Их отношения нельзя назвать обычными: внезапно возникающие романы на стороне, случайный секс и сменяющие их приступы ревности и страсти у обоих супругов. У них растет сын, который поневоле впитывает все происходящее и по-своему воспринимает. С возрастом он все больше убеждается, что девушки его не интересуют, и склоняется к нетрадиционной ориентации. Видя увлечения своего сына и пытаясь предотвратить это, Барбара решается соблазнить его, не думая о том, какую страшную трагедию она может навлечь, переступив эту запретную черту.

Качество: DVDRip
Формат: AVI
Видео кодек: XviD
Аудио кодек: AC3
Видео: 720x384 (1.88:1), 25 fps, XviD build 50 ~1828 kbps avg, 0.26 bit/pixel
Аудио#1: Русский: 48 kHz, AC3 Dolby Digital, 3/2 (L,C,R,l,r) + LFE ch, ~384 kbps
Общее
Полное имя : F:ЗакачкиDikaya.Gratciya.2007DVDRip.avi
Формат : AVI
Формат/Информация : Audio Video Interleave
Размер файла : 1,45 Гбайт
Продолжительность : 1 ч. 33 м.
Общий поток : 2223 Кбит/сек
Программа кодирования : VirtualDubMod 1.5.10.3 | www.virtualdub-fr.org || (build 2550/release)
Библиотека кодирования : VirtualDubMod build 2550/release

Видео
Идентификатор : 0
Формат : MPEG-4 Visual
Профиль формата : Advanced Simple@L5
Параметр BVOP формата : 1
Параметр QPel формата : Нет
Параметр GMC формата : Без точки перехода
Параметр матрицы формата : Default (H.263)
Идентификатор кодека : XVID
Идентификатор кодека/Подсказка : XviD
Продолжительность : 1 ч. 33 м.
Битрейт : 1829 Кбит/сек
Ширина : 720 пикселей
Высота : 384 пикселя
Соотношение сторон : 1,85:1
Частота кадров : 25,000 кадров/сек
Цветовое пространство : YUV
Субдискретизация насыщенности : 4:2:0
Битовая глубина : 8 бит
Тип развёртки : Прогрессивная
Метод сжатия : С потерями
Бит/(Пиксели*Кадры) : 0.265
Размер потока : 1,20 Гбайт (82%)
Библиотека кодирования : XviD 1.2.1 (UTC 2008-12-04)

Аудио
Идентификатор : 1
Формат : AC-3
Формат/Информация : Audio Coding 3
Расширение режима : CM (complete main)
Параметр Endianness формата : Big
Идентификатор кодека : 2000
Продолжительность : 1 ч. 33 м.
Вид битрейта : Постоянный
Битрейт : 384 Кбит/сек
Каналы : 6 каналов
Расположение каналов : Front: L C R, Side: L R, LFE
Частота : 48,0 КГц
Битовая глубина : 16 бит
Метод сжатия : С потерями
Размер потока : 257 Мбайт (17%)
Выравнивание : Разделение по промежуткам
Продолжительность промежутка : 40 мс. (1,00 видеокадр)
Время предзагрузки промежутка : 500 мс.


Дикая грация скачать торрент


piratbit.pw



Скачать Дикая грация через торрент http://i47.fastpic.ru/big/2012/1113/56/26d8b6738b23d03efea86620cb6c9756.jpg Скачать фильм Дикая грация через торрент бесплантно в хорошем качестве Описание: История фильма основанного на реальной истории, события которой разворачивались в Лондоне 1972 года. Молодая красавица Барбара ... 10 10 1
Info! Золотая раздача, скачанное не засчитывается.
Торрент: Зарегистрирован [2012-11-13 12:20] · скачан: 71 раз
Статус: √ проверено
Размер: 1.45 GB
Как cкачать? Как скачать Дикая грация через торрент | UTorrent

28-11-2019 20:33  

Отключить всю рекламу на сайте

    Дорогой пользователь! Огромная просьба, поблагодарите релизера, оцените раздачу и оставьте свои комментарий, если Вы скачали Дикая грация через торрент бесплатно! Внесите свою лепту в развитие PiratBit!
    Комментировать посты могут только пользователи прошедшие не сложную регистрацию
    Показать сообщения:    

    Дикая грация через торрент
    Скачать бесплатно Дикая грация
    Дикая грация скачать торрент
    Дикая грация смотреть онлайн
    Cкачать фильм Дикая грация бесплатно
    Дикая грация скачать торрент в хорошем качестве
    Дикая грация смотреть онлайн бесплатно в хорошем качестве


    Вы не можете начинать темы
    Вы не можете отвечать на сообщения
    Вы не можете редактировать свои сообщения
    Вы не можете удалять свои сообщения
    Вы не можете голосовать в опросах
    Вы не можете прикреплять файлы к сообщениям
    Вы можете скачивать файлы