1 сезон

1 сезон

iTunes

1

iTunes

Кинопоиск HD

iTunes

13

1 сезон

RePack

30

Deluxe

ВАЖНО

ИГРА 18+

pack

RePack

MK11
pack

Легкие деньги

RePack

jed

RePack

fifa19

RePack

RDR2

RePack

NEED FOR SPEED™ PAYBACK

4 сезон

9 сезон

Бесстыжие 9 сезон

Все сериалы

все сериалы на PB.wtf

RePack

FAR CRY 5
  
Magnet ссылка

Византийская принцесса / Tirante el Blanco (Висенте Аранда) [2006 г., приключения, история, TVRip, MVO, лицензия] piratbit.pw

Византийская принцесса через торрент piratbit.pw

Размер: 1.47 GB | Добавлен: 8 лет 6 мес. назад | Торрент скачан:122 раза
Скачать  

07-11-2012 13:24 Византийская принцесса Скачать торрент  

Византийская принцесса / Tirante el Blanco

Год выпуска: 2006
Страна: Великобритания, Италия, Испания
Жанр: приключения, история
Продолжительность: 02:01:47
Перевод: Профессиональный многоголосый

Режиссер: Висенте Аранда
Продюссер: Энрике Вициано, Карола Эш, Массимилиано Ла Пегна
Сценарий: Висенте Аранда, Жуанот Мартурель

Бюджет: €14 000 000
Премьера в мире: 30 марта 2006

зрителям, достигшим 18 лет
4.00 (553)
http://www.kinopoisk.ru/film/102394/

В ролях: Каспар Зафер, Эстер Нубиола, Леонор Уотлинг, Ингрид Рубио, Джейн Эшер, Чарли Кокс, Сид Митчел, Рафаэль Амарго, Джей Бенедикт, Виктория Абриль, Джанкарло Джаннини, Ребекка Кобос, Валентина Бургуэньо, Хулио Велез, Исмаэль Мартинез, Виктор Мануэль Ривас, Эудженио Джименез, Ramуn Del Pomar, Sabrina Praga, Рокко Салата

Описание: Византия, XV век, турецкие войска взяли Константинополь. В качестве мирного договора Великий султан Турции Мухаммед II просит руки Карменсины — дочери византийского императора. Гордый правитель Византии не хочет отдавать в руки врага и дочь, и столицу своей империи. Но выбор неизбежен. Его лучший полководец Тирант, сгорающий от страсти к красавице Карменсине, бросает вызов несметным полчищам турков. Но волнует его не исход великой битвы, а взятие неприступного сердца прекрасной и непорочной дочери императора.

Качество: TVRip
Формат: AVI
Видео кодек: XviD
Аудио кодек: MP3
Видео: MPEG-4 Visual, XviD, 1587 Кбит/сек, 704х304 пикселя, 25,000 кадра/сек
Аудио#1: MPEG Audio, MP3 , 128 Кбит/сек, 2 канала, 48,0 КГц





Формат : AVI
Формат/Информация : Audio Video Interleave
Размер файла : 1,47 Гбайт
Продолжительность : 2 ч. 1 м.
Общий поток : 1725 Кбит/сек
Название фильма : Византийская принцесса / Tirante el Blanco (2006) [ HDTVRip ]
Режиссёр : jlиС
Программа кодирования : VirtualDubMod 1.5.10.2 (build 2542/release)
Правообладатель : torrents.ru

Видео
Идентификатор : 0
Формат : MPEG-4 Visual
Профиль формата : Advanced Simple@L5
Параметр BVOP формата : 4
Параметр QPel формата : Нет
Параметр GMC формата : Без точки перехода
Параметр матрицы формата : Default (MPEG)
Идентификатор кодека : XVID
Идентификатор кодека/Подсказка : XviD
Продолжительность : 2 ч. 1 м.
Битрейт : 1587 Кбит/сек
Ширина : 704 пикселя
Высота : 304 пикселя
Соотношение сторон : 2,35:1
Частота кадров : 25,000 кадров/сек
Цветовое пространство : YUV
Субдискретизация насыщенности : 4:2:0
Битовая глубина : 8 бит
Тип развёртки : Прогрессивная
Метод сжатия : С потерями
Бит/(Пиксели*Кадры) : 0.297
Размер потока : 1,35 Гбайт (92%)
Библиотека кодирования : XviD 1.2.1 (UTC 2008-12-04)

Аудио
Идентификатор : 1
Формат : MPEG Audio
Версия формата : Version 1
Профиль формата : Layer 3
Режим : Joint stereo
Расширение режима : MS Stereo
Идентификатор кодека : 55
Идентификатор кодека/Подсказка : MP3
Продолжительность : 2 ч. 1 м.
Вид битрейта : Постоянный
Битрейт : 128 Кбит/сек
Каналы : 2 канала
Частота : 48,0 КГц
Метод сжатия : С потерями
Размер потока : 112 Мбайт (7%)
Выравнивание : Соединение по промежуткам
Продолжительность промежутка : 40 мс. (1,00 видеокадр)
Время предзагрузки промежутка : 504 мс.
Библиотека кодирования : LAME3.98r
Настройки программы : -m j -V 4 -q 2 -lowpass 17 -b 128

piratbit.pw



Скачать Византийская принцесса через торрент https://pic1.kartinco.top/images/111/lc6yt6g4l9.jpg Скачать фильм Византийская принцесса через торрент бесплантно в хорошем качестве Описание: Византия, XV век, турецкие войска взяли Константинополь. В качестве мирного договора Великий султан Турции Мухаммед II просит ... 10 10 2
Info! Золотая раздача, скачанное не засчитывается.
Торрент: Зарегистрирован [2012-11-07 13:24] · скачан: 122 раз
Статус: √ проверено
Размер: 1.47 GB
Как cкачать? Как скачать Византийская принцесса через торрент | UTorrent

% Раздел Тема Автор DL S | L
Фильмы 2006-2008 [ 2.18 GB ] Византийская принцесса / Tirante el Blanco [2006 Италия Испания эротика HDRip] MVO + Original + Sub rus -=Cherry=- Скачать
1 | 0

28-11-2019 20:33  

Отключить всю рекламу на сайте

    Дорогой пользователь! Огромная просьба, поблагодарите релизера, оцените раздачу и оставьте свои комментарий, если Вы скачали Византийская принцесса через торрент бесплатно! Внесите свою лепту в развитие PiratBit!
    Комментировать посты могут только пользователи прошедшие не сложную регистрацию
    Показать сообщения:    

    Византийская принцесса через торрент
    Скачать бесплатно Византийская принцесса
    Византийская принцесса скачать торрент
    Византийская принцесса смотреть онлайн
    Cкачать фильм Византийская принцесса бесплатно
    Византийская принцесса скачать торрент в хорошем качестве
    Византийская принцесса смотреть онлайн бесплатно в хорошем качестве


    Вы не можете начинать темы
    Вы не можете отвечать на сообщения
    Вы не можете редактировать свои сообщения
    Вы не можете удалять свои сообщения
    Вы не можете голосовать в опросах
    Вы не можете прикреплять файлы к сообщениям
    Вы можете скачивать файлы