1 сезон

1 сезон

iTunes

1

iTunes

Кинопоиск HD

iTunes

13

1 сезон

RePack

30

Deluxe

ВАЖНО

ИГРА 18+

pack

RePack

MK11
pack

Легкие деньги

RePack

jed

RePack

fifa19

RePack

RDR2

RePack

NEED FOR SPEED™ PAYBACK

4 сезон

9 сезон

Бесстыжие 9 сезон

Все сериалы

все сериалы на PB.wtf

RePack

FAR CRY 5
  
Magnet ссылка

Скорпион / Scorpion (Жюльен Сери.) [2007 г., драма, криминал, спорт, DVDRip, VO] piratbit.pw

Скорпион через торрент piratbit.pw

Размер: 874 MB | Добавлен: 8 лет 6 мес. назад | Торрент скачан:82 раза
Скачать  

20-10-2012 13:25 Скорпион Скачать торрент  

Скорпион / Scorpion

Год выпуска: 2007
Страна: Франция
Жанр: драма, криминал, спорт
Продолжительность: 01:34:09
Перевод: Любительский одноголосый

Режиссер: Жюльен Сери.
Продюссер: Седрик Хименез, Жан Лабади, Жюльен Сери
Сценарий: Седрик Хименез, Жюльен Сери.

Премьера в мире: 10 февраля 2007

5.20 (441)
http://www.kinopoisk.ru/film/257522/

В ролях: Кловис Корнийяк, Франсис Рено, Оливье Маршаль, Жером Ле Баннер, Хичам Наззал, Пьер Берьо, Марк Бертолини, Филипп Бас, Мусса Мааскри, Жан-Марк Фочер, Ален Фиглаж, Jean-Franзois Lenogue, Энтони Ри, Патрик Во, Мохамед Дайкит, Карим Белкхадра, Emilie Lenglez, Адриан Руис, Соня Флайшманн, Матиас Риччио

Описание: Тайский боксер Анджело, был внезапно снят с соревнования за чемпионский титул своим тренером. Вечером в уличной драке, он случайно убивает своего соперника, за что отсидит в тюрьме целых шесть лет. Освободившись, он теряет всякий интерес к жизни, опустившись до нищеты. Но ради любви, он возьмет себя в руки. Поддерживаемый гангстером Маркусом, он возвращается к нелегальным боям без правил. Он становится Скорпионом…

Качество: DVDRip
Формат: AVI
Видео кодек: XviD
Аудио кодек: MP3
Видео: MPEG-4 Visual, XviD, 899 Кбит/сек, 608*320 пикселей, 25,000 кадров/сек
Аудио#1: MPEG Audio, MP3 , 256 Кбит/сек, 2 канала, 48,0 КГц [ENG]
Аудио#2: MPEG Audio, MP3 , 128 Кбит/сек, 2 канала, 48,0 КГц [RUS] (Любительский одноголосый)





Формат : AVI
Формат/Информация : Audio Video Interleave
Размер файла : 874 Мбайт
Продолжительность : 1 ч. 34 м.
Режим общего битрейта : Переменный
Общий поток : 1297 Кбит/сек
Программа кодирования : VirtualDubMod 1.5.10.2 (build 2540/release)
Библиотека кодирования : VirtualDubMod build 2540/release

Видео
Идентификатор : 0
Формат : MPEG-4 Visual
Профиль формата : Advanced Simple@L5
Параметр BVOP формата : 2
Параметр QPel формата : Нет
Параметр GMC формата : Без точки перехода
Параметр матрицы формата : Default (H.263)
Режим смешивания : Сжатый битовый поток
Идентификатор кодека : XVID
Идентификатор кодека/Подсказка : XviD
Продолжительность : 1 ч. 34 м.
Битрейт : 899 Кбит/сек
Ширина : 608 пикселей
Высота : 320 пикселей
Соотношение сторон : 1,900
Частота кадров : 25,000 кадров/сек
Цветовое пространство : YUV
Субдискретизация насыщенности : 4:2:0
Битовая глубина : 8 бит
Тип развёртки : Прогрессивная
Метод сжатия : С потерями
Бит/(Пиксели*Кадры) : 0.185
Размер потока : 605 Мбайт (69%)
Библиотека кодирования : XviD 1.1.2 (UTC 2006-11-01)

Аудио #1
Идентификатор : 1
Формат : MPEG Audio
Версия формата : Version 1
Профиль формата : Layer 3
Идентификатор кодека : 55
Идентификатор кодека/Подсказка : MP3
Продолжительность : 1 ч. 34 м.
Вид битрейта : Постоянный
Битрейт : 256 Кбит/сек
Каналы : 2 канала
Частота : 48,0 КГц
Метод сжатия : С потерями
Размер потока : 172 Мбайт (20%)
Выравнивание : Соединение по промежуткам
Продолжительность промежутка : 40 мс. (1,00 видеокадр)
Время предзагрузки промежутка : 504 мс.

Аудио #2
Идентификатор : 2
Формат : MPEG Audio
Версия формата : Version 1
Профиль формата : Layer 3
Режим : Joint stereo
Расширение режима : MS Stereo
Идентификатор кодека : 55
Идентификатор кодека/Подсказка : MP3
Продолжительность : 1 ч. 34 м.
Продолжительность оригинала : 1 ч. 34 м.
Вид битрейта : Переменный
Битрейт : 128 Кбит/сек
Каналы : 2 канала
Частота : 48,0 КГц
Метод сжатия : С потерями
Размер потока : 85,8 Мбайт (10%)
Выравнивание : Разделение по промежуткам
Продолжительность промежутка : 40 мс. (1,00 видеокадр)
Время предзагрузки промежутка : 500 мс.
Библиотека кодирования : LAME3.90.
Настройки программы : -m j -V 4 -q 2 -lowpass 17.6 --abr 128

piratbit.pw



Скачать Скорпион через торрент https://pic1.kartinco.top/images/111/h8oim6k2z2.png Скачать фильм Скорпион через торрент бесплантно в хорошем качестве Описание: Тайский боксер Анджело, был внезапно снят с соревнования за чемпионский титул своим тренером. Вечером в уличной драке, он ... 5 10 1
Info! Золотая раздача, скачанное не засчитывается.
Торрент: Зарегистрирован [2012-10-20 13:25] · скачан: 82 раз
Статус: √ проверено
Размер: 874 MB
Как cкачать? Как скачать Скорпион через торрент | UTorrent

% Раздел Тема Автор DL S | L
Иностранные мультфильмы [ 2.06 GB ] Легенды «Смертельной битвы»: Месть Скорпиона / Mortal Kombat Legends: Scorpions Revenge [2020 Мультфильм BDRip-AVC] MVO [NewComers] - ExKinoRay Mr. Grab Скачать
3 | 0
Зарубежные Мультфильмы (WEB-DL 720p, 1080p) [ 4.13 GB ] Легенды «Смертельной битвы»: Месть Скорпиона / Mortal Kombat Legends: Scorpion's Revenge [2020 мультфильм WEB-DL 1080p] [MVO] killermax2013 Скачать
5 | 0
Иностранные мультфильмы [ 1.46 GB ] Легенды «Смертельной битвы»: Месть Скорпиона / Mortal Kombat Legends: Scorpions Revenge [2020 мультфильм HDRip] MVO [NewComers] Twi7ter Скачать
3 | 1
Ultra HD (UHD: 2K, 4K, 8K) — видео сверхвысокой чёткости [ 56.45 GB ] Царь скорпионов / The Scorpion King [2002 UHD Blu-ray EUR 2160p] DUB [] sheker187 Скачать
1 | 0
Ultra HD (UHD: 2K, 4K, 8K) — видео сверхвысокой чёткости [ 46.13 GB ] Царь скорпионов / The Scorpion King [2002 UHD BDRip 2160p] [SDR] DUB+2xDVO+2xAVO+2xMVO bober100 Скачать
1 | 0
Ultra HD (UHD: 2K, 4K, 8K) — видео сверхвысокой чёткости [ 29.54 GB ] Царь скорпионов / The Scorpion King [2002 UHD BDRip 2160p] DUB + MVO + DVO + AVO sheker187 Скачать
1 | 0
Ultra HD (UHD: 2K, 4K, 8K) — видео сверхвысокой чёткости [ 49.53 GB ] Царь скорпионов / The Scorpion King [2002 UHD BDRemux 2160p] DUB bober100 Скачать
1 | 0


Последний раз редактировалось: lexxus350 (2012-10-20 14:45), всего редактировалось 1 раз

28-11-2019 20:33  

Отключить всю рекламу на сайте

    Дорогой пользователь! Огромная просьба, поблагодарите релизера, оцените раздачу и оставьте свои комментарий, если Вы скачали Скорпион через торрент бесплатно! Внесите свою лепту в развитие PiratBit!
    Комментировать посты могут только пользователи прошедшие не сложную регистрацию
    Показать сообщения:    

    Скорпион через торрент
    Скачать бесплатно Скорпион
    Скорпион скачать торрент
    Скорпион смотреть онлайн
    Cкачать фильм Скорпион бесплатно
    Скорпион скачать торрент в хорошем качестве
    Скорпион смотреть онлайн бесплатно в хорошем качестве


    Вы не можете начинать темы
    Вы не можете отвечать на сообщения
    Вы не можете редактировать свои сообщения
    Вы не можете удалять свои сообщения
    Вы не можете голосовать в опросах
    Вы не можете прикреплять файлы к сообщениям
    Вы можете скачивать файлы