1 сезон

1 сезон

iTunes

1

iTunes

Кинопоиск HD

iTunes

13

1 сезон

RePack

30

Deluxe

ВАЖНО

ИГРА 18+

pack

RePack

MK11
pack

Легкие деньги

RePack

jed

RePack

fifa19

RePack

RDR2

RePack

NEED FOR SPEED™ PAYBACK

4 сезон

9 сезон

Бесстыжие 9 сезон

Все сериалы

все сериалы на PB.wtf

RePack

FAR CRY 5
  
Magnet ссылка

Заброшенный дом / The Abandoned (Начо Серда) [2006 г., ужасы, триллер, детектив, HDRip, DUB(Мосфильм-мастер)] piratbit.pw

Заброшенный дом через торрент piratbit.pw

Размер: 2.19 GB | Добавлен: 8 лет 6 мес. назад | Торрент скачан:78 раз
Скачать  

20-10-2012 10:54 Заброшенный дом Скачать торрент  

Заброшенный дом / The Abandoned
"Твоя смерть родилась вместе с тобой"

Год выпуска: 2006
Страна: Испания, Великобритания, Болгария.
Жанр: ужасы, триллер, детектив
Продолжительность: 99 мин. / 01:39
Перевод: Дубляж(Мосфильм-мастер)
Субтитры: Русские, Английские (полные, отключаемые)
Режиссер: Начо Серда
Продюссер: Хулио Фернандес, Карола Эш, Антония Нава
Сценарий: Карим Хуссэйн, Начо Серда, Ричард Стэнли
Бюджет: €3 000 000
Премьера в мире: 11 сентября 2006
MPAA лицам до 17 лет обязательно присутствие взрослого
Мировой рейтинг IMDB 5.70 (8 164)

В ролях: Анастасия Хилл, Карел Роден, Валентин Ганев, Параскева Джукелова, Карлос Рейг-Пласа, Калин Арсов, Светлана Смолева, Анна Панаетова, Йорданка Ангелова, Валентин Гошев
Описание: В поисках своих настоящих родителей американка Мэри приезжает в Россию и узнает, что получила в наследство дом от матери, умершей при таинственных обстоятельствах. В этом пустующем доме, затерянном в лесной глуши, она встречает человека по имени Николай, утверждающего, что он — ее брат-близнец, которого она никогда не знала.Они понимают, что оказались здесь не случайно, и вскоре становятся свидетелями зловещих событий прошлого. Затаившийся в древнем доме ужас прорывается наружу, обволакивая их невидимыми путами и увлекая в лабиринты нескончаемого кошмара...
Качество: HDRip
Формат: MKV
Видео кодек: H.264x
Аудио кодек: AC3
Видео: 1280x544 (2,35:1), 25,000 fps, MPEG4 AVC (х264), ~2900 kbps avg, 0.167 bit/pixel
Аудио#1: 48 kHz, AC-3, 6 ch, ~384.00 kbps avg

Общее
Уникальный идентификатор : 192447232696237541872056638028895300858 (0x90C7FD231290D35B9B09036B2AD52CFA)
Полное имя : C:UsersСлавонDesktopЗаброшенный дом.mkv
Формат : Matroska
Версия формата : Version 2
Размер файла : 2,19 Гбайт
Продолжительность : 1 ч. 35 м.
Общий поток : 3284 Кбит/сек
Дата кодирования : UTC 2012-05-01 05:23:33
Программа кодирования : mkvmerge v4.6.0 ('Still Crazy After All These Years') сборка от Mar 10 2011 02:50:32
Библиотека кодирования : libebml v1.2.0 + libmatroska v1.1.0

Видео
Идентификатор : 1
Формат : AVC
Формат/Информация : Advanced Video Codec
Профиль формата : High@L4.1
Параметр CABAC формата : Да
Параметр ReFrames формата : 2 кадра
Идентификатор кодека : V_MPEG4/ISO/AVC
Продолжительность : 1 ч. 35 м.
Битрейт : 2900 Кбит/сек
Ширина : 1280 пикселей
Высота : 544 пикселя
Соотношение сторон : 2,35:1
Режим частоты кадров : Постоянный
Частота кадров : 25,000 кадров/сек
Цветовое пространство : YUV
Субдискретизация насыщенности : 4:2:0
Битовая глубина : 8 бит
Тип развёртки : Прогрессивная
Бит/(Пиксели*Кадры) : 0.167
Размер потока : 1,89 Гбайт (86%)
Библиотека кодирования : x264 core 122 r2184
Настройки программы : cabac=1 / ref=2 / deblock=1:-1:-1 / analyse=0x3:0x133 / me=hex / subme=7 / psy=1 / psy_rd=1.00:0.10 / mixed_ref=0 / me_range=16 / chroma_me=1 / trellis=1 / 8x8dct=1 / cqm=0 / deadzone=21,11 / fast_pskip=1 / chroma_qp_offset=-3 / threads=6 / sliced_threads=0 / nr=0 / decimate=1 / interlaced=0 / bluray_compat=0 / constrained_intra=0 / bframes=3 / b_pyramid=0 / b_adapt=1 / b_bias=0 / direct=3 / weightb=1 / open_gop=0 / weightp=2 / keyint=250 / keyint_min=25 / scenecut=40 / intra_refresh=0 / rc_lookahead=40 / rc=2pass / mbtree=1 / bitrate=2900 / ratetol=1.0 / qcomp=0.60 / qpmin=10 / qpmax=69 / qpstep=4 / cplxblur=20.0 / qblur=0.5 / vbv_maxrate=24000 / vbv_bufsize=24000 / nal_hrd=none / ip_ratio=1.40 / aq=1:1.00
Язык : Spanish
Default : Да
Forced : Нет

Аудио
Идентификатор : 2
Формат : AC-3
Формат/Информация : Audio Coding 3
Расширение режима : CM (complete main)
Параметр Endianness формата : Big
Идентификатор кодека : A_AC3
Продолжительность : 1 ч. 35 м.
Вид битрейта : Постоянный
Битрейт : 384 Кбит/сек
Каналы : 6 каналов
Расположение каналов : Front: L C R, Side: L R, LFE
Частота : 48,0 КГц
Битовая глубина : 16 бит
Метод сжатия : С потерями
Размер потока : 262 Мбайт (12%)
Заголовок : DUB
Язык : Russian
Default : Да
Forced : Нет

Текст #1
Идентификатор : 3
Формат : UTF-8
Идентификатор кодека : S_TEXT/UTF8
Идентификатор кодека/Информация : UTF-8 Plain Text
Язык : Russian
Default : Да
Forced : Нет

Текст #2
Идентификатор : 4
Формат : UTF-8
Идентификатор кодека : S_TEXT/UTF8
Идентификатор кодека/Информация : UTF-8 Plain Text
Язык : English
Default : Нет
Forced : Нет

piratbit.pw



Скачать Заброшенный дом через торрент https://pic1.kartinco.top/images/111/fip3bnftj5.jpg Скачать фильм Заброшенный дом через торрент бесплантно в хорошем качестве Описание: В поисках своих настоящих родителей американка Мэри приезжает в Россию и узнает, что получила в наследство дом от матери, умершей ... 9.5 10 2
Info! Золотая раздача, скачанное не засчитывается.
Торрент: Зарегистрирован [2012-10-20 10:54] · скачан: 78 раз
Статус: √ проверено
Размер: 2.19 GB
Как cкачать? Как скачать Заброшенный дом через торрент | UTorrent

% Раздел Тема Автор DL S | L
Фильмы 2006-2008 [ 2.05 GB ] Заброшенный дом / The Abandoned [2006 BDRip-AVC] boombee Скачать
1 | 0
Фильмы 2006-2008 [ 1.37 GB ] Заброшенный дом / The Abandoned [2006 DVDRip] nicadimas Скачать
1 | 0

28-11-2019 20:33  

Отключить всю рекламу на сайте

    Дорогой пользователь! Огромная просьба, поблагодарите релизера, оцените раздачу и оставьте свои комментарий, если Вы скачали Заброшенный дом через торрент бесплатно! Внесите свою лепту в развитие PiratBit!
    Комментировать посты могут только пользователи прошедшие не сложную регистрацию
    Показать сообщения:    

    Заброшенный дом через торрент
    Скачать бесплатно Заброшенный дом
    Заброшенный дом скачать торрент
    Заброшенный дом смотреть онлайн
    Cкачать фильм Заброшенный дом бесплатно
    Заброшенный дом скачать торрент в хорошем качестве
    Заброшенный дом смотреть онлайн бесплатно в хорошем качестве


    Вы не можете начинать темы
    Вы не можете отвечать на сообщения
    Вы не можете редактировать свои сообщения
    Вы не можете удалять свои сообщения
    Вы не можете голосовать в опросах
    Вы не можете прикреплять файлы к сообщениям
    Вы можете скачивать файлы