1 сезон

1 сезон

iTunes

1

iTunes

Кинопоиск HD

iTunes

13

1 сезон

RePack

30

Deluxe

ВАЖНО

ИГРА 18+

pack

RePack

MK11
pack

Легкие деньги

RePack

jed

RePack

fifa19

RePack

RDR2

RePack

NEED FOR SPEED™ PAYBACK

4 сезон

9 сезон

Бесстыжие 9 сезон

Все сериалы

все сериалы на PB.wtf

RePack

FAR CRY 5
  
Magnet ссылка

Змеиный полет / Snakes on a Plane (Дэвид Р. Эллис) [2006 г., боевик, триллер, HDRip, DUB, лицензия] piratbit.pw

Змеиный полет через торрент piratbit.pw

Размер: 1.46 GB | Добавлен: 8 лет 7 мес. назад | Торрент скачан:60 раз
Скачать  

10-10-2012 14:26 Змеиный полет Скачать торрент  

Змеиный полет / Snakes on a Plane

Год выпуска: 2006
Страна: Германия, США, Канада
Жанр: боевик, триллер
Продолжительность: 01:45:37
Перевод: Дубляж, Лицензия

Режиссер: Дэвид Р. Эллис
Продюссер: Крэйг Беренсон, Джейсон Линн, Кэти Палло
Сценарий: Джон Хеффернан, Себастьян Гутьеррес, Дэвид Далессандро

Бюджет: $33 000 000
Премьера в мире: 17 августа 2006

Мировой рейтинг IMDB 5.70 (85 544)


В ролях: Сэмюэл Л. Джексон, Джулианна Маргулис, Натан Филлипс, Рейчел Блэнчард, Флекс Александр, Кенан Томпсон, Кейт Даллас, Лин Шэй, Брюс Джеймс, Санни Мабри, Виктор Бохон, Ольга Зубкова, Михаил Тихонов, Андрей Бархударов, Пётр Иващенко

Описание: На борту огромного двухпалубного Боинга, летящего над Тихим океаном, находятся безжалостные хладнокровные убийцы, множество убийц. Их задача — покончить с пассажиром, проходящим свидетелем по делу об обвинении крупного мафиозо.

Качество: HDRip
Формат: AVI
Видео кодек: XviD
Аудио кодек: AC3
Видео: 720x304 (2.37:1), 23.976 fps, XviD build 46 ~1581 kbps avg, 0.30 bit/pixel
Аудио#1: 48 kHz, AC3 Dolby Digital, 3/2 (L,C,R,l,r) + LFE ch, ~384 kbps
Общее
Полное имя : E:ТоррентыPiratbitZmeiniy polet .avi
Формат : AVI
Формат/Информация : Audio Video Interleave
Размер файла : 1,46 Гбайт
Продолжительность : 1 ч. 45 м.
Общий поток : 1975 Кбит/сек
Программа кодирования : VirtualDubMod 1.5.10.2 (build 2540/release)

Видео
Идентификатор : 0
Формат : MPEG-4 Visual
Профиль формата : Advanced Simple@L5
Параметр BVOP формата : 1
Параметр QPel формата : Нет
Параметр GMC формата : Без точки перехода
Параметр матрицы формата : Default (MPEG)
Идентификатор кодека : XVID
Идентификатор кодека/Подсказка : XviD
Продолжительность : 1 ч. 45 м.
Битрейт : 1582 Кбит/сек
Ширина : 720 пикселей
Высота : 304 пикселя
Соотношение сторон : 2,35:1
Соотношение сторон в оригинале : 2,35:1
Частота кадров : 23,976 кадра/сек
Цветовое пространство : YUV
Субдискретизация насыщенности : 4:2:0
Битовая глубина : 8 бит
Тип развёртки : Прогрессивная
Метод сжатия : С потерями
Бит/(Пиксели*Кадры) : 0.301
Размер потока : 1,17 Гбайт (80%)
Библиотека кодирования : XviD 1.1.2 (UTC 2006-11-01)

Аудио
Идентификатор : 1
Формат : AC-3
Формат/Информация : Audio Coding 3
Расширение режима : CM (complete main)
Параметр Endianness формата : Big
Идентификатор кодека : 2000
Продолжительность : 1 ч. 45 м.
Вид битрейта : Постоянный
Битрейт : 384 Кбит/сек
Каналы : 6 каналов
Расположение каналов : Front: L C R, Side: L R, LFE
Частота : 48,0 КГц
Битовая глубина : 16 бит
Метод сжатия : С потерями
Размер потока : 290 Мбайт (19%)
Выравнивание : Разделение по промежуткам
Продолжительность промежутка : 42 мс. (1,00 видеокадр)
Время предзагрузки промежутка : 500 мс.



piratbit.pw



Скачать Змеиный полет через торрент http://i073.radikal.ru/1210/f9/c089aba913e3.png Скачать фильм Змеиный полет через торрент бесплантно в хорошем качестве Описание: На борту огромного двухпалубного Боинга, летящего над Тихим океаном, находятся безжалостные хладнокровные убийцы, множество ... 10 10 1
Info! Золотая раздача, скачанное не засчитывается.
Торрент: Зарегистрирован [2012-10-10 14:26] · скачан: 60 раз
Статус: √ проверено
Размер: 1.46 GB
Как cкачать? Как скачать Змеиный полет через торрент | UTorrent

% Раздел Тема Автор DL S | L
Фильмы 2006-2008 [ 2.47 GB ] Змеиный полет / Snakes on a Plane [2006 BDRip] -=BIGBOSS=- Скачать
1 | 0


Последний раз редактировалось: lev1244v (2012-10-10 14:47), всего редактировалось 1 раз

28-11-2019 20:33  

Отключить всю рекламу на сайте

10-10-2012 14:30 Змеиный полет Скачать торрент  

Приятного просмотра![URL=СПАМ/smilie-1177417095.html] [/URL]piratbit.pw



10-10-2012 14:32 Змеиный полет Скачать торрент  

ну и как фильм?piratbit.pw



10-10-2012 14:34 Змеиный полет Скачать торрент  

lev1244v
1. Продолжительность укажи в формате ЧЧ:ММ:СС
2. Скриншоты не соответствуют заявленным параметрам видео

Как сделать скриншот?
Для изменения статуса раздачи, после исправления уведомить в со ссылкой на раздачуpiratbit.pw



10-10-2012 14:44 Змеиный полет Скачать торрент  

Мне не понравился, скучно, хотя на 1 раз сойдет.piratbit.pw



    Дорогой пользователь! Огромная просьба, поблагодарите релизера, оцените раздачу и оставьте свои комментарий, если Вы скачали Змеиный полет через торрент бесплатно! Внесите свою лепту в развитие PiratBit!
    Комментировать посты могут только пользователи прошедшие не сложную регистрацию
    Показать сообщения:    

    Змеиный полет через торрент
    Скачать бесплатно Змеиный полет
    Змеиный полет скачать торрент
    Змеиный полет смотреть онлайн
    Cкачать фильм Змеиный полет бесплатно
    Змеиный полет скачать торрент в хорошем качестве
    Змеиный полет смотреть онлайн бесплатно в хорошем качестве


    Вы не можете начинать темы
    Вы не можете отвечать на сообщения
    Вы не можете редактировать свои сообщения
    Вы не можете удалять свои сообщения
    Вы не можете голосовать в опросах
    Вы не можете прикреплять файлы к сообщениям
    Вы можете скачивать файлы