1 сезон

3 сезон

iTunes

1

iTunes

DUB Netflix

iTunes

13

1 сезон

RePack

30

Deluxe

pack

Легкие деньги

ВАЖНО

ИГРА 18+

pack

RePack

MK11

RePack

jed

RePack

fifa19

RePack

RDR2

RePack

NEED FOR SPEED™ PAYBACK

4 сезон

9 сезон

Бесстыжие 9 сезон

Все сериалы

все сериалы на PB.wtf

RePack

FAR CRY 5

Anonymous, доброй ночи, мы не успеваем до 1 числа собрать деньги на оплату серверов, помогите нам пожалуйста в это трудное время. В качестве благодарности мы отключим Вам всю рекламу на сайте (укажите свой ник в строку Ваше имя)!

×
  
Magnet ссылка

Психоанализ / The Treatment (Орен Рудавски) [2006 г., драма, мелодрама, комедия, DVDRip] piratbit.pw

Психоанализ через торрент piratbit.pw

Размер: 1.37 GB | Добавлен: 8 лет 8 мес. назад | Торрент скачан:53 раза
Скачать  

02-10-2012 11:43 Психоанализ Скачать торрент  

Психоанализ / The Treatment

Год выпуска: 2006
Страна
: США
Жанр
: драма, мелодрама, комедия
Продолжительность: 01:22:40
Перевод: Профессиональный (многоголосый закадровый)

Режиссер: Орен Рудавски
Продюссер: Орен Рудавски, Джонатан Шоумэйкер
Сценарий: Дэниэл Сауль Хаусман, Орен Рудавски, Дэниэл Менакер



В ролях: Крис Эиджеман, Иан Хом и Фэймк Джанссен

Описание: Джейк Сингер - немного неудачливый и неуверенный в себе учитель ищет своё место в жизни Нью-Йорка.
Он ходит на приёмы к сексуально озабоченному пожилому психиатру Моралез.
Его бывшая девушка только что вышла замуж и кинула его неподетски. С отцом у Джейка уже давно проблемы из-за матери и беспорядочной половой жизни,
но тут он встречает девушку своей мечты Аллегру да ещё и с двумя детьми, которых из двух у неё только один! И тут то всё и начинается...

Качество: DVDRip
Формат: AVI
Видео кодек: XviD
Аудио кодек: AC3
Видео: 720x400 (1.80:1), 25 fps, XviD build 64 ~1972 kbps avg, 0.27 bit/pixel
Аудио: 48 kHz, AC3 Dolby Digital, 3/2 (L,C,R,l,r) + LFE ch, ~384 kbps


скриншот   скриншот   скриншот   скриншот   скриншот   скриншот   скриншот   скриншот  





Общее
Общее
Полное имя : Psihoanaliz.2006.P.DVDRip.avi
Формат : AVI
Формат/Информация : Audio Video Interleave
Размер файла : 1,37 Гбайт
Продолжительность : 1 ч. 22 м.
Общий поток : 2367 Кбит/сек
Программа кодирования : VirtualDubMod 1.5.10.3
Библиотека кодирования : VirtualDubMod build 2550/release

Видео
Идентификатор : 0
Формат : MPEG-4 Visual
Профиль формата : Advanced Simple@L5
Параметр BVOP формата : 1
Параметр QPel формата : Нет
Параметр GMC формата : Без точки перехода
Параметр матрицы формата : Default (MPEG)
Идентификатор кодека : XVID
Идентификатор кодека/Подсказка : XviD
Продолжительность : 1 ч. 22 м.
Битрейт : 1973 Кбит/сек
Ширина : 720 пикселей
Высота : 400 пикселей
Соотношение сторон : 16:9
Частота кадров : 25,000 кадров/сек
Цветовое пространство : YUV
Субдискретизация насыщенности : 4:2:0
Битовая глубина : 8 бит
Тип развёртки : Прогрессивная
Метод сжатия : С потерями
Бит/(Пиксели*Кадры) : 0.274
Размер потока : 1,14 Гбайт (83%)
Библиотека кодирования : XviD 64

Аудио
Идентификатор : 1
Формат : AC-3
Формат/Информация : Audio Coding 3
Расширение режима : CM (complete main)
Параметр Endianness формата : Big
Идентификатор кодека : 2000
Продолжительность : 1 ч. 22 м.
Вид битрейта : Постоянный
Битрейт : 384 Кбит/сек
Каналы : 6 каналов
Расположение каналов : Front: L C R, Side: L R, LFE
Частота : 48,0 КГц
Битовая глубина : 16 бит
Метод сжатия : С потерями
Размер потока : 227 Мбайт (16%)
Выравнивание : Разделение по промежуткам
Продолжительность промежутка : 40 мс. (1,00 видеокадр)
Время предзагрузки промежутка : 500 мс..
piratbit.pw



Скачать Психоанализ через торрент https://pic1.kartinco.top/images/111/4i4l85973d.png Скачать фильм Психоанализ через торрент бесплантно в хорошем качестве Описание: Джейк Сингер - немного неудачливый и неуверенный в себе учитель ищет своё место в жизни Нью-Йорка. Он ходит на приёмы к ... 5 10 1
Info! Золотая раздача, скачанное не засчитывается.
Торрент: Зарегистрирован [2012-10-02 11:43] · скачан: 53 раз
Статус: √ проверено
Размер: 1.37 GB
Как cкачать? Как скачать Психоанализ через торрент | UTorrent

28-11-2019 20:33  

Отключить всю рекламу на сайте

    Дорогой пользователь! Огромная просьба, поблагодарите релизера, оцените раздачу и оставьте свои комментарий, если Вы скачали Психоанализ через торрент бесплатно! Внесите свою лепту в развитие PiratBit!
    Комментировать посты могут только пользователи прошедшие не сложную регистрацию
    Показать сообщения:    

    Психоанализ через торрент
    Скачать бесплатно Психоанализ
    Психоанализ скачать торрент
    Психоанализ смотреть онлайн
    Cкачать фильм Психоанализ бесплатно
    Психоанализ скачать торрент в хорошем качестве
    Психоанализ смотреть онлайн бесплатно в хорошем качестве


    Вы не можете начинать темы
    Вы не можете отвечать на сообщения
    Вы не можете редактировать свои сообщения
    Вы не можете удалять свои сообщения
    Вы не можете голосовать в опросах
    Вы не можете прикреплять файлы к сообщениям
    Вы можете скачивать файлы