Мега распродажа FORZA HORIZON 4 ULTIMATE+ВСЕ DLC+ОНЛАЙН всего за 499р. 349 руб. (супер цена). Внимание количество ограничено!!!

iTunes

1+1

iTunes

мы

iTunes

1

1 сезон

Чернобыль

1 сезон

Ральф против интернета

Лицензия

ПШазам

8 сезон

Игра престолов

Лицензия

30
pack

ВАЖНО

!!Акция!!

Alien_RageХит недели

RePack

Resident Evil 21

ИГРА 18+

pack

RePack

Metro:Exodus

!!Акция!!

Alien_Rage

RePack

fifa19

RePack

Assassins Creed: Odyssey

RePack

NEED FOR SPEED™ PAYBACK

3 сезон

9 сезон

Бесстыжие 9 сезон

Все сериалы

все сериалы на PB.wtf

RePack

FAR CRY 5
Ребята, катастрофически не хватает 2730р. для оплаты серверов за ИЮНЬ (всвязи с блокировками трафик упал в 3 раза), 1-2р., выручайте.
  

Бинго Бонго / Bingo Bongo (Паскуале Феста Кампаниле /Pasquale Festa Campanile) [1982 г., комедия, семейный, DVDRip, Профессиональный двухголосый] piratbit.pw

Бинго Бонго через торрент piratbit.pw

Размер: 1.37 GB | Добавлен: 6 лет 9 мес. назад | Торрент скачан:148 раз
Скачать  

29-09-2012 17:38 Бинго Бонго Скачать торрент  


Бинго Бонго / Bingo Bongo




Год выпуска: 1982
Страна: Италия, Германия (ФРГ)
Жанр: комедия, семейный
Продолжительность: 01:42:01
Перевод: Профессиональный двухголосый

Режиссер: Паскуале Феста Кампаниле /Pasquale Festa Campanile

В ролях: Адриано Челентано,Кароль Буке,Феличе Андреаси,Энцо Робутти,Уолтер Д`Амор,Роберто Марелли,Альфио Патане

Описание: Человек-обезьяна, найденный где-то в джунглях Конго, перевезен в Милан и назван Бинго-Бонго. Одна лишь Лаура, женщина-антрополог, верит в человеческие качества этого необузданного полу животного, и их привязанность друг к другу даже перерастает в любовь



Качество: DVDRip
Формат: AVI
Видео кодек: DivX
Аудио кодек: AC3
Видео: 672x384 (1.75:1), 25 fps, DivX Codec 5.x or 6.x ~1529 kbps avg, 0.24 bit/pixel
Аудио#1: 1:русский 48 kHz, AC3 Dolby Digital, 2/0 (L,R) ch, ~192.00 kbps avg[Профессиональный (двухголосый)]
Аудио#2: 2:итальянский 48 kHz, AC3 Dolby Digital, 2/0 (L,R) ch, ~192.00 kbps avg[оригинал]
General
Complete name : Bingo Bongo.mkv
Format : Matroska
File size : 1.99 GiB
Duration : 1h 42mn
Overall bit rate : 2 786 Kbps
Encoded date : UTC 2009-07-29 10:27:10
Writing application : mkvmerge v2.2.0 ('Turn It On Again') built on Mar 4 2008 13:20:25
Writing library : libebml v0.7.7 + libmatroska v0.8.1
Video #1
ID : 1
Format : AVC
Format/Info : Advanced Video Codec
Format profile : High@L4.1
Format settings, CABAC : Yes
Format settings, ReFrames : 2 frames
Format settings, GOP : M=1, N=3
Muxing mode : Container profile=Unknown@4.1
Codec ID : V_MPEG4/ISO/AVC
Duration : 1h 42mn
Bit rate : 2 402 Kbps
Width : 992 pixels
Height : 568 pixels
Display aspect ratio : 16:9
Frame rate : 25.000 fps
Color space : YUV
Chroma subsampling : 4:2:0
Bit depth : 8 bits
Scan type : Progressive
Bits/(Pixel*Frame) : 0.171
Stream size : 1.67 GiB (84%)
Title : ice
Writing library : x264 core 65 r999kMod cc51047
Encoding settings : cabac=1 / ref=1 / deblock=0:0:0 / analyse=0x3:0x133 / me=hex / subme=6 / psy_rd=1.0:0.0 / mixed_ref=0 / me_range=16 / chroma_me=1 / trellis=0 / 8x8dct=1 / cqm=0 / deadzone=21,11 / chroma_qp_offset=-2 / threads=2 / thread_queue=2 / nr=0 / decimate=1 / mbaff=0 / bframes=3 / b_pyramid=0 / b_adapt=1 / b_bias=0 / direct=3 / wpredb=0 / keyint=250 / keyint_min=25 / scenecut=40(pre) / rc=abr / bitrate=2402 / ratetol=1.0 / qcomp=0.60 / qpmin=10 / qpmax=51 / qpstep=4 / ip_ratio=1.40 / pb_ratio=1.30 / aq=1:1.00
Language : Italian
Audio #2
ID : 2
Format : AC-3
Format/Info : Audio Coding 3
Mode extension : CM (complete main)
Codec ID : A_AC3
Duration : 1h 42mn
Bit rate mode : Constant
Bit rate : 192 Kbps
Channel(s) : 2 channels
Channel positions : Front: L R
Sampling rate : 48.0 KHz
Stream size : 140 MiB (7%)
Language : Russian
Audio #3
ID : 3
Format : AC-3
Format/Info : Audio Coding 3
Mode extension : CM (complete main)
Codec ID : A_AC3
Duration : 1h 42mn
Bit rate mode : Constant
Bit rate : 192 Kbps
Channel(s) : 2 channels
Channel positions : Front: L R
Sampling rate : 48.0 KHz
Stream size : 140 MiB (7%)
Language : Italian

piratbit.pw



Скачать Бинго Бонго через торрент http://s002.youpic.su/pictures/1348862400/ab81e355718bf1262b602ecf52f57577.jpg Скачать фильм Бинго Бонго через торрент бесплантно в хорошем качестве Описание: Человек-обезьяна, найденный где-то в джунглях Конго, перевезен в Милан и назван Бинго-Бонго. Одна лишь Лаура, женщина-антрополог, ... 10 10 5
Info! Золотая раздача, скачанное не засчитывается.
Торрент: Зарегистрирован [2012-09-29 17:38] · скачан: 148 раз
Статус: √ проверено
Размер: 1.37 GB
Как cкачать? Как скачать Бинго Бонго через торрент | qTorrent

% Раздел Тема Автор DL S | L
Фильмы (WEB-DL 720p, 1080p) [ 6.09 GB ] Бинго-Бонго / Bingo-Bongo [1982 HDTV 1080p ] slaventi-69 Скачать
1 | 0


>> Регистрируемся здесь <<






Отзывы и комментарии о схеме читаем и пишем здесь: ---> Отзывы и комментарии о схеме

Новые благодарочки в телеграм довольных пользователей:
скриншот   скриншот   скриншот   скриншот   скриншот

29-09-2012 18:14 Бинго Бонго Скачать торрент  

"Бинго-Бонго" !!! Челентано великолепен. Фрльм юности, сколько воспоминаний Посмотрю с большим удовольствием!piratbit.pw



29-09-2012 18:33 Бинго Бонго Скачать торрент  

Salchichon писал(а):

"Бинго-Бонго" !!! Челентано великолепен. Фрльм юности, сколько воспоминаний Посмотрю с большим удовольствием!

С Челентано вообще все фильмы хорошие =)piratbit.pw



    Дорогой пользователь! Огромная просьба, поблагодарите релизера, оцените раздачу и оставьте свои комментарий, если Вы скачали Бинго Бонго через торрент бесплатно! Внесите свою лепту в развитие PiratBit!
    Комментировать посты могут только пользователи прошедшие не сложную регистрацию
    Показать сообщения:    

    Бинго Бонго через торрент
    Скачать бесплатно Бинго Бонго
    Бинго Бонго скачать торрент
    Бинго Бонго смотреть онлайн
    Cкачать фильм Бинго Бонго бесплатно
    Бинго Бонго скачать торрент в хорошем качестве
    Бинго Бонго смотреть онлайн бесплатно в хорошем качестве


    Вы не можете начинать темы
    Вы не можете отвечать на сообщения
    Вы не можете редактировать свои сообщения
    Вы не можете удалять свои сообщения
    Вы не можете голосовать в опросах
    Вы не можете прикреплять файлы к сообщениям
    Вы можете скачивать файлы