1 сезон

1 сезон

iTunes

1

iTunes

Кинопоиск HD

iTunes

13

1 сезон

RePack

30

Deluxe

ВАЖНО

ИГРА 18+

pack

RePack

MK11
pack

Легкие деньги

RePack

jed

RePack

fifa19

RePack

RDR2

RePack

NEED FOR SPEED™ PAYBACK

4 сезон

9 сезон

Бесстыжие 9 сезон

Все сериалы

все сериалы на PB.wtf

RePack

FAR CRY 5
  
Magnet ссылка

Грязное дело / Dirty (Крис Фишер) [2005 г., триллер, драма, криминал, DVDRip, DVO лицензия] piratbit.pw

Грязное дело через торрент piratbit.pw

Размер: 745 MB | Добавлен: 8 лет 7 мес. назад | Торрент скачан:35 раз
Скачать  

11-09-2012 16:02 Грязное дело Скачать торрент  


Грязное дело / Dirty
Год выпуска: 2005
Страна: США,2710 Inc., Deviant Films
Жанр: триллер, драма, криминал
Продолжительность: 01:33:33
Перевод: Профессиональный (двухголосый) лицензия

Режиссер: Крис Фишер

В ролях: Кьюба Гудинг-младший, Клифтон Коллинз-младший, Коул Хаузер Вайклеф, Джин Кейт Дэвид, Вуд Харрис, Роберт ЛаСардо, Лобо Себастьян, Табу Хлео Томас...

Описание: Однажды Санчо и Дэй, офицеры по борьбе с наркотиками, попадают в поле зрения Службы внутренних расследований по подозрению в коррупции. Они и правда не без греха, но никогда серьезно не марались. Только почему-то именно их «прессуют» особо рьяно. Зажатые меж молотом следствия и наковальней наркомафии Санчо и Дэй понимают: это подстава. И нет шанса уйти незапятнанными...
Доп. информация:


Качество: DVDRip
Формат: AVI
Видео кодек: XviD
Аудио кодек: MP3
Видео: 672x368 (1.83:1), 25 fps, XviD build 50 ~975 kbps avg, 0.16 bit/pixel
Аудио#1: 48 kHz, MPEG Layer 3, 2 ch, ~128.00 kbps avg


E:\Movies For Seed\Grjaznoe.delo.2005.DVDRip.avi
General
Complete name : E:\Movies For Seed\Grjaznoe.delo.2005.DVDRip.avi
Format : AVI
Format/Info : Audio Video Interleave
File size : 745 MiB
Duration : 1h 33mn
Overall bit rate : 1 114 Kbps
Writing application : VirtualDubMod 1.5.10.3 | www.virtualdub-fr.org || (build 2550/release)
Writing library : VirtualDubMod build 2550/release
Video #0
ID : 0
Format : MPEG-4 Visual
Format profile : Advanced Simple@L5
Format settings, BVOP : 1
Format settings, QPel : No
Format settings, GMC : No warppoints
Format settings, Matrix : Custom
Codec ID : XVID
Codec ID/Hint : XviD
Duration : 1h 33mn
Bit rate : 976 Kbps
Width : 672 pixels
Height : 368 pixels
Display aspect ratio : 1.85:1
Frame rate : 25.000 fps
Color space : YUV
Chroma subsampling : 4:2:0
Bit depth : 8 bits
Scan type : Interlaced
Scan order : Bottom Field First
Compression mode : Lossy
Bits/(Pixel*Frame) : 0.158
Stream size : 653 MiB (88%)
Writing library : XviD 1.2.1 (UTC 2008-12-04)
Audio #1
ID : 1
Format : MPEG Audio
Format version : Version 1
Format profile : Layer 3
Codec ID : 55
Codec ID/Hint : MP3
Duration : 1h 33mn
Bit rate mode : Constant
Bit rate : 128 Kbps
Channel(s) : 2 channels
Sampling rate : 48.0 KHz
Compression mode : Lossy
Stream size : 85.7 MiB (11%)
Alignment : Aligned on interleaves
Interleave, duration : 40 ms (1.00 video frame)
Interleave, preload duration : 504 ms
Writing library : LAME3.98r
Encoding settings : -m s -V 4 -q 2 -lowpass 17 -b 128

piratbit.pw



Скачать Грязное дело через торрент http://3.bp.blogspot.com/_Fxf-nqiHltA/TEhNX_UdMUI/AAAAAAAAB-c/R26UlAh3Q44/s1600/dirty.jpg Скачать фильм Грязное дело через торрент бесплантно в хорошем качестве Описание: Однажды Санчо и Дэй, офицеры по борьбе с наркотиками, попадают в поле зрения Службы внутренних расследований по подозрению в ... 5 10 1
Info! Золотая раздача, скачанное не засчитывается.
Торрент: Зарегистрирован [2012-09-11 16:02] · скачан: 35 раз
Статус: √ проверено
Размер: 745 MB
Как cкачать? Как скачать Грязное дело через торрент | UTorrent

% Раздел Тема Автор DL S | L
Порно фильмы с сюжетом [ 881 MB ] Грязные Дела / Dirty Deeds [2014 Comedy Couples Feature DVDRip] Pir@tya2010 Скачать
1 | 0
Гонзо [ 1.12 GB ] Грязные девочки делают это лучше / Dirty Girls Do It Better [2014 All Sex Anal Oral Gonzo BigTits Porn Stars WEB-DLRip Оригинал] sheker187 Скачать
1 | 0
Фильмы 2001-2005 [ 1.37 GB ] Грязное дело / Dirty [2005 DVDRip] kycher1972 Скачать
1 | 0
Порно фильмы с сюжетом [ 1.37 GB ] Rawhide II: Dirty Deeds Плеть 2: Грязные Дела [2010 Feature Western DVDRip] Shmel Скачать
1 | 0

28-11-2019 20:33  

Отключить всю рекламу на сайте

    Дорогой пользователь! Огромная просьба, поблагодарите релизера, оцените раздачу и оставьте свои комментарий, если Вы скачали Грязное дело через торрент бесплатно! Внесите свою лепту в развитие PiratBit!
    Комментировать посты могут только пользователи прошедшие не сложную регистрацию
    Показать сообщения:    

    Грязное дело через торрент
    Скачать бесплатно Грязное дело
    Грязное дело скачать торрент
    Грязное дело смотреть онлайн
    Cкачать фильм Грязное дело бесплатно
    Грязное дело скачать торрент в хорошем качестве
    Грязное дело смотреть онлайн бесплатно в хорошем качестве


    Вы не можете начинать темы
    Вы не можете отвечать на сообщения
    Вы не можете редактировать свои сообщения
    Вы не можете удалять свои сообщения
    Вы не можете голосовать в опросах
    Вы не можете прикреплять файлы к сообщениям
    Вы можете скачивать файлы