1 сезон

3 сезон

iTunes

1

iTunes

DUB Netflix

iTunes

13

1 сезон

RePack

30

Deluxe

pack

Легкие деньги

ВАЖНО

ИГРА 18+

pack

RePack

MK11

RePack

jed

RePack

fifa19

RePack

RDR2

RePack

NEED FOR SPEED™ PAYBACK

4 сезон

9 сезон

Бесстыжие 9 сезон

Все сериалы

все сериалы на PB.wtf

RePack

FAR CRY 5

Anonymous, добрый вечер, мы не успеваем до 1 числа собрать деньги на оплату серверов, помогите нам пожалуйста в это трудное время. В качестве благодарности мы отключим Вам всю рекламу на сайте (укажите свой ник в строку Ваше имя)!

×
  
Magnet ссылка

Проделки в колледже / Charlie Bartlett (Джон Полл / Jon Poll) [2007 , США , драма, комедия , HDTVRip ] DUB + Original (Eng) + Sub (Rus, Eng) piratbit.pw

Проделки в колледже через торрент piratbit.pw

Размер: 2.03 GB | Добавлен: 8 лет 9 мес. назад | Торрент скачан:299 раз
Скачать  

09-09-2012 15:04 Проделки в колледже Скачать торрент  

Проделки в колледже / Charlie Bartlett

  • Год выпуска: 2007
  • Страна: США
  • Жанр: драма, комедия
  • Продолжительность: 01:36:53
  • Перевод: Дубляж, Лицензия
  • Cубтитры: Русские, английские
  • Оригинальная аудиодорожка: английский

  • Режиссер: Джон Полл / Jon Poll

  • В ролях: Антон Ельчин (Charlie Bartlett), Роберт Дауни мл. (Nathan Gardner), Хоуп Дэвис (Marilyn Bartlett), Кэт Деннингс (Susan Gardner), Тайлер Хилтон (Murphy Bivens), Марк Рендалл (Kip Crombwell), Дилан Тейлор (Len Arbuckle), Меган Парк (Whitney Drummond), Джэйк Эпштейн (Dustin Lauderbach), Джонатан Мэйлен (Jordan Sunder), Дерек МакГрат (Superintendent Sedgwick), Стивен Янг (Dr. Stan Weathers)

  • Описание:
    Сына богатеньких родителей Чарли Бартлетта к его совершеннолетию выгнали из всех элитных школ города. Очень уж своеобразное у юноши чувства юмора. Отчаявшиеся родители пристраивают своего саркастичного сынка в обычную школу-интернат.
    Как это ни странно, но здесь Чарли ведёт себя как прилежный ученик и верный товарищ, направо и налево раздающий бесплатные дельные советы. Только спустя какое-то время учителя школы начинают замечать, что с их учениками начинают происходить неожиданные изменения...

  • Качество: HDTVRip
  • Формат: AVI
  • Видео кодек: XviD
  • Аудио кодек: AC3
  • Видео: 704x384 , 23.976 fps, XviD MPEG-4 ~2087 kbps avg, 0.32 bit/pixel
  • Аудио#1: 48 kHz, AC3 Dolby Digital, 3/2 (L,C,R,l,r) + LFE ch, ~448 kbps Russian
  • Аудио#2: 48 kHz, AC3 Dolby Digital, 3/2 (L,C,R,l,r) + LFE ch, ~448 kbps English
    Общее
    Полное имя : D:\Торенты\Prodelki.v.kolledje.2007. HDTVRip\Prodelki.v.kolledje.2007. HDTVRip.avi
    Формат : AVI
    Формат/Информация : Audio Video Interleave
    Профиль формата : OpenDML
    Размер файла : 2,03 Гбайт
    Продолжительность : 1 ч. 36 м.
    Общий поток : 3002 Кбит/сек
    Программа кодирования : VirtualDubModRus 1.5.10.2 (build 2542/release)
    Библиотека кодирования : VirtualDubMod build 2542/release

    Видео
    Идентификатор : 0
    Формат : MPEG-4 Visual
    Профиль формата : Advanced Simple@L5
    Параметр BVOP формата : 1
    Параметр QPel формата : Нет
    Параметр GMC формата : Без точки перехода
    Параметр матрицы формата : Выборочная
    Идентификатор кодека : XVID
    Идентификатор кодека/Подсказка : XviD
    Продолжительность : 1 ч. 36 м.
    Битрейт : 2087 Кбит/сек
    Ширина : 704 пикс.
    Высота : 384 пикс.
    Соотношение сторон : 16:9
    Частота кадров : 23,976 кадр/сек
    Цветовое пространство : YUV
    Подвыборка цветности : 4:2:0
    Битовая глубина : 8 бит
    Тип развёртки : Прогрессивная
    Метод сжатия : С потерями
    Бит/(Пиксели*Кадры) : 0.322
    Размер потока : 1,41 Гбайт (70%)
    Библиотека кодирования : XviD 65

    Аудио #1
    Идентификатор : 1
    Формат : AC-3
    Формат/Информация : Audio Coding 3
    Расширение режима : CM (complete main)
    Идентификатор кодека : 2000
    Продолжительность : 1 ч. 36 м.
    Вид битрейта : Постоянный
    Битрейт : 448 Кбит/сек
    Каналы : 6 каналов
    Расположение каналов : Front: L C R, Side: L R, LFE
    Частота : 48,0 КГц
    Битовая глубина : 16 бит
    Метод сжатия : С потерями
    Размер потока : 310 Мбайт (15%)
    Выравнивание : Разделение по промежуткам
    Продолжительность промежутка : 42 мс. (1,00 видеокадр)
    Время предзагрузки промежутка : 500 ms

    Аудио #2
    Идентификатор : 2
    Формат : AC-3
    Формат/Информация : Audio Coding 3
    Расширение режима : CM (complete main)
    Идентификатор кодека : 2000
    Продолжительность : 1 ч. 36 м.
    Вид битрейта : Постоянный
    Битрейт : 448 Кбит/сек
    Каналы : 6 каналов
    Расположение каналов : Front: L C R, Side: L R, LFE
    Частота : 48,0 КГц
    Битовая глубина : 16 бит
    Метод сжатия : С потерями
    Размер потока : 310 Мбайт (15%)
    Выравнивание : Разделение по промежуткам
    Продолжительность промежутка : 42 мс. (1,00 видеокадр)
    Время предзагрузки промежутка : 500 ms

    piratbit.pw



  • Скачать Проделки в колледже через торрент http://i42.fastpic.ru/big/2012/0713/65/f1a6776ffd74a95c13b318698a4a8265.png Скачать фильм Проделки в колледже через торрент бесплантно в хорошем качестве Описание: Сына богатеньких родителей Чарли Бартлетта к его совершеннолетию выгнали из всех элитных школ города. Очень уж своеобразное у ... 9 10 6
    Info! Золотая раздача, скачанное не засчитывается.
    Торрент: Зарегистрирован [2012-09-09 15:04] · скачан: 299 раз
    Статус: √ проверено
    Размер: 2.03 GB
    Как cкачать? Как скачать Проделки в колледже через торрент | UTorrent

    % Раздел Тема Автор DL S | L
    Фильмы (WEB-DL 720p, 1080p) [ 10.5 GB ] Проделки в колледже / Charlie Bartlett [2007 WEB-DL 1080p] DUB + DVO - KORSAR kisa1980 Скачать
    1 | 0
    Фильмы (WEB-DL 720p, 1080p) [ 6.9 GB ] Проделки в колледже / Charlie Bartlett [2007 HDTVRip 720p] Dub + DVO [НТВ Messa-fan Скачать
    2 | 0


    Последний раз редактировалось: Ворон (2012-09-09 15:26), всего редактировалось 3 раз(а)

    28-11-2019 20:33  

    Отключить всю рекламу на сайте


    09-09-2012 15:19 Проделки в колледже Скачать торрент  

    ??piratbit.pw



      Дорогой пользователь! Огромная просьба, поблагодарите релизера, оцените раздачу и оставьте свои комментарий, если Вы скачали Проделки в колледже через торрент бесплатно! Внесите свою лепту в развитие PiratBit!
      Комментировать посты могут только пользователи прошедшие не сложную регистрацию
      Показать сообщения:    

      Проделки в колледже через торрент
      Скачать бесплатно Проделки в колледже
      Проделки в колледже скачать торрент
      Проделки в колледже смотреть онлайн
      Cкачать фильм Проделки в колледже бесплатно
      Проделки в колледже скачать торрент в хорошем качестве
      Проделки в колледже смотреть онлайн бесплатно в хорошем качестве


      Вы не можете начинать темы
      Вы не можете отвечать на сообщения
      Вы не можете редактировать свои сообщения
      Вы не можете удалять свои сообщения
      Вы не можете голосовать в опросах
      Вы не можете прикреплять файлы к сообщениям
      Вы можете скачивать файлы