1 сезон

1 сезон

iTunes

1

КиноПоиск HD

Кинопоиск HD

iTunes

13

1 сезон

RePack

30

Deluxe

ВАЖНО

ИГРА 18+

pack

RePack

MK11
pack

Легкие деньги

RePack

jed

RePack

fifa19

RePack

RDR2

RePack

NEED FOR SPEED™ PAYBACK

4 сезон

9 сезон

Бесстыжие 9 сезон

Все сериалы

все сериалы на PB.wtf

RePack

FAR CRY 5
  
Magnet ссылка

Сауна / Sauna (Анти-Юсси Аннила) [2008 г., Ужасы,Исторический,Мистика, DVDRip, MVO] piratbit.pw

Сауна через торрент piratbit.pw

Размер: 707 MB | Добавлен: 8 лет 7 мес. назад | Торрент скачан:227 раз
Скачать  

07-09-2012 18:22 Сауна Скачать торрент  


Сауна / Sauna

Год выпуска: 2008
Страна: Финляндия, Чехия
Жанр: Ужасы,Исторический,Мистика
Продолжительность: 01:19:41
Перевод: Профессиональный многоголосый

Режиссер: Анти-Юсси Аннила

В ролях: Вилле Виртанен, Томми Эронен, Виктор Клименко, Рэйн Толк, Кари Кетонен...

Описание: «Смывает все грехи...»
1595 год. Окончена 25-ти летняя русско-шведская война. Два брата Кнут и Эрик работают в комиссии по демаркации границы между Россией и Швецией. Старший брат Кнут, прошедший всю войну, видевший смерть и сам убивший бесчисленное количество людей мучается от сознания своей вины.
Младший брат, не видевший ужасов войны, а учившийся в университете, как может пытается помочь ему. В одной из деревень они случайно убивают юную девушку и ее призрак начинает преследовать их. Единственный способ спастись — найти заколдованную сауну, которая по преданию смывает все грехи!
Доп. информация:


Качество: DVDRip
Формат: AVI
Видео кодек: XviD
Аудио кодек: MP3
Видео: 640x272 (2.29:1), 25,000 fps, XviD build 46 ~1102 Kbit/s
Аудио#1: 48 kHz,MPEG Layer 3, 2 ch, ~128.00 kbit/s


E:\Movies For Seed\Sauna.2008.700.avi
General
Complete name : E:\Movies For Seed\Sauna.2008.700.avi
Format : AVI
Format/Info : Audio Video Interleave
File size : 707 MiB
Duration : 1h 19mn
Overall bit rate : 1 237 Kbps
Writing application : VirtualDubMod 1.5.4.1 (build 2178/release)
Writing library : VirtualDubMod build 2178/release
Video #0
ID : 0
Format : MPEG-4 Visual
Format profile : Advanced Simple@L5
Format settings, BVOP : 1
Format settings, QPel : No
Format settings, GMC : No warppoints
Format settings, Matrix : Custom
Codec ID : XVID
Codec ID/Hint : XviD
Duration : 1h 19mn
Bit rate : 1 102 Kbps
Width : 640 pixels
Height : 272 pixels
Display aspect ratio : 2.35:1
Frame rate : 25.000 fps
Color space : YUV
Chroma subsampling : 4:2:0
Bit depth : 8 bits
Scan type : Progressive
Compression mode : Lossy
Bits/(Pixel*Frame) : 0.253
Stream size : 630 MiB (89%)
Writing library : XviD 58
Audio #1
ID : 1
Format : MPEG Audio
Format version : Version 1
Format profile : Layer 3
Mode : Joint stereo
Mode extension : MS Stereo
Codec ID : 55
Codec ID/Hint : MP3
Duration : 1h 19mn
Bit rate mode : Constant
Bit rate : 128 Kbps
Channel(s) : 2 channels
Sampling rate : 48.0 KHz
Compression mode : Lossy
Stream size : 73.2 MiB (10%)
Alignment : Aligned on interleaves
Interleave, duration : 80 ms (2.00 video frames)
Interleave, preload duration : 504 ms
Writing library : LAME3.98r
Encoding settings : -m j -V 4 -q 2 -lowpass 17 -b 128

piratbit.pw



Скачать Сауна через торрент https://pic1.kartinco.top/images/111/uq2oqvu949.jpg Скачать фильм Сауна через торрент бесплантно в хорошем качестве Описание: «Смывает все грехи...»1595 год. Окончена 25-ти летняя русско-шведская война. Два брата Кнут и Эрик работают в комиссии по ... 10 10 1
Info! Золотая раздача, скачанное не засчитывается.
Торрент: Зарегистрирован [2012-09-07 18:22] · скачан: 227 раз
Статус: √ проверено
Размер: 707 MB
Как cкачать? Как скачать Сауна через торрент | UTorrent

% Раздел Тема Автор DL S | L
Большие сиськи [ 259 MB ] Patty Michova [DDFBusty.com / DDFNetwork.com][2015 [Big tits Brunette Cum on tits Deep throat Handjob Pussy fucking Shaved Pussy Swallowing cum Sauna Titty sucking Titty play SATRip] Pir@tya2010 Скачать
1 | 0
Русское любительское видео [ 89 MB ] Анал с сисястой подругой в сауне [2014 Sauna Blonde Hairy Pussy Natural Tits Big Tits Big Ass Oral All Sex Anal Cum In Ass POV Talking CamRip] Pir@tya2010 Скачать
1 | 0
Порно фильмы HD [ 10.59 GB ] Девочки Из Сауны / Sauna Girls [2012 Gonzo Anal Interracial WEB-DL 1080p] Бавария Скачать
1 | 0
Сцены из фильмов и Сайтрипы с русскими актрисами [ 2.13 GB ] Конфетки сауны / Sauna Sweeties . [HandsOnHardcore / DDFProd] [2013 Anal Blowjob Threesome Hardcore. HDTV 1080p] Pir@tya2010 Скачать
1 | 0
Сцены из фильмов и Сайтрипы с русскими актрисами [ 422 MB ] Конфетки сауны / Sauna Sweeties. [HandsOnHardcore / DDFProd] [2013 Anal Natural Tits Blowjob Threesome Hardcore. SATRip] Pir@tya2010 Скачать
1 | 0
Паки русских роликов [ 3 GB ] Student Sex Parties ssp8001 Russian girls fucking in sauna / Групповуха в сауне [2011 blowjob stockings group lesbian blonde brunette DVDRip] Nikman Скачать
1 | 1
Сцены из фильмов и Сайтрипы с русскими актрисами [ 1.89 GB ] Студенческие Вечеринки / StudentSexParties /4 ролика/ (ssp67 - Corporate group orgy in a sauna / Корпоративная оргия в сауне [2011 Teens All Sex Anal Group SATRip] tyry999 Скачать
1 | 0


Последний раз редактировалось: PsYcho (2012-09-07 18:33), всего редактировалось 3 раз(а)

28-11-2019 20:33  

Отключить всю рекламу на сайте

07-09-2012 18:31 Сауна Скачать торрент  

DAXAKA
Максимальный размер постера 700х700. Уменьши.piratbit.pw



16-09-2012 15:24 Сауна Скачать торрент  

фильм нормальный. мне понравился. реально мистика. даже щурился иногда piratbit.pw



    Дорогой пользователь! Огромная просьба, поблагодарите релизера, оцените раздачу и оставьте свои комментарий, если Вы скачали Сауна через торрент бесплатно! Внесите свою лепту в развитие PiratBit!
    Комментировать посты могут только пользователи прошедшие не сложную регистрацию
    Показать сообщения:    

    Сауна через торрент
    Скачать бесплатно Сауна
    Сауна скачать торрент
    Сауна смотреть онлайн
    Cкачать фильм Сауна бесплатно
    Сауна скачать торрент в хорошем качестве
    Сауна смотреть онлайн бесплатно в хорошем качестве


    Вы не можете начинать темы
    Вы не можете отвечать на сообщения
    Вы не можете редактировать свои сообщения
    Вы не можете удалять свои сообщения
    Вы не можете голосовать в опросах
    Вы не можете прикреплять файлы к сообщениям
    Вы можете скачивать файлы