1 сезон

1 сезон

iTunes

1

iTunes

Кинопоиск HD

iTunes

13

1 сезон

RePack

30

Deluxe

ВАЖНО

ИГРА 18+

pack

RePack

MK11
pack

Легкие деньги

RePack

jed

RePack

fifa19

RePack

RDR2

RePack

NEED FOR SPEED™ PAYBACK

4 сезон

9 сезон

Бесстыжие 9 сезон

Все сериалы

все сериалы на PB.wtf

RePack

FAR CRY 5
  
Magnet ссылка

Солдаты неудачи / Tropic Thunder(Бен Стиллер / Ben Stiller) [2008 г., боевик, комедия, приключения, BDRip] [Theatrical cut / Театральная версия] DUB piratbit.pw

Солдаты неудачи через торрент piratbit.pw

Размер: 2.18 GB | Добавлен: 8 лет 8 мес. назад | Торрент скачан:329 раз
Скачать  

03-09-2012 11:35 Солдаты неудачи Скачать торрент  

Солдаты неудачи / Tropic Thunder Director's Cut
[font="Georgia"]
Год выпуска: 2008
Страна: США, Германия
Жанр: боевик, комедия, приключения
Продолжительность:01:46:47
Перевод: Профессиональный (полное дублирование) + Оригинальная звуковая дорожка
Режиссер: Бен Стиллер / Ben Stiller
В ролях: Бен Стиллер, Джек Блэк, Роберт Дауни мл., Ник Нолти, Стив Кугэн, Джей Барушель, Дэнни МакБрайд, Брэндон Т. Джексон, Билл Хадерr, Брэндон Су Ху, Том Круз
Описание:
Камера. Мотор. Начали! В реальных джунглях проходят съемки суперблокбастера с участием больших звезд, среди которых: крутой герой боевиков, мастер туалетного юмора, чернокожий рэппер Альпа Чино и обладатель всех кинопремий, специально для фильма перекрасивший кожу в черный цвет.
Когда у продюсеров закончились деньги и съемки были остановлены — актерам про это не сказали. Поэтому они с холостыми патронами с легкостью вступают в неравный бой с настоящими вооруженными до зубов бандитами-головорезами…
Качество: BDRip (источник / BDRemux / 1080p)
Формат: AVI
Видео кодек: XviD
Аудио кодек: AC3
Видео: XviD build 72, 720x304 (2.37:1), 23.976 fps, ~2011 kbps avg, 0.39 bit/pixel
Аудио 1: 48 kHz, AC3 Dolby Digital, 3/2 (L,C,R,l,r) + LFE ch, ~448.00 kbps avg rus
Аудио 2: 48 kHz, AC3 Dolby Digital, 3/2 (L,C,R,l,r) + LFE ch, ~448.00 kbps avg eng
Общее
Полное имя : D:\Торенты\Soldaty.neudachi.TC.2008.DUAL.BDRip.XviD.AC3..avi
Формат : AVI
Формат/Информация : Audio Video Interleave
Профиль формата : OpenDML
Размер файла : 2,18 Гбайт
Продолжительность : 1 ч. 46 м.
Общий поток : 2925 Кбит/сек
Название фильма : Soldaty.neudachi.TC.2008.DUAL.BDRip.XviD.AC3.-HQCLUB
Режиссёр : Joker
Жанр : боевик, комедия, приключения
Программа кодирования : VirtualDubMod 1.5.10.2 (build 2542/release)
Правообладатель :
Примечание : 06.08.12

Видео
Идентификатор : 0
Формат : MPEG-4 Visual
Профиль формата : Advanced Simple@L5
Параметр BVOP формата : 1
Параметр QPel формата : Нет
Параметр GMC формата : Без точки перехода
Параметр матрицы формата : Выборочная
Идентификатор кодека : XVID
Идентификатор кодека/Подсказка : XviD
Продолжительность : 1 ч. 46 м.
Битрейт : 2011 Кбит/сек
Ширина : 720 пикс.
Высота : 304 пикс.
Соотношение сторон : 2,35:1
Частота кадров : 23,976 кадр/сек
Цветовое пространство : YUV
Подвыборка цветности : 4:2:0
Битовая глубина : 8 бит
Тип развёртки : Прогрессивная
Метод сжатия : С потерями
Бит/(Пиксели*Кадры) : 0.383
Размер потока : 1,50 Гбайт (69%)
Библиотека кодирования : XviD 72

Аудио #1
Идентификатор : 1
Формат : AC-3
Формат/Информация : Audio Coding 3
Расширение режима : CM (complete main)
Идентификатор кодека : 2000
Продолжительность : 1 ч. 46 м.
Вид битрейта : Постоянный
Битрейт : 448 Кбит/сек
Каналы : 6 каналов
Расположение каналов : Front: L C R, Side: L R, LFE
Частота : 48,0 КГц
Битовая глубина : 16 бит
Метод сжатия : С потерями
Размер потока : 342 Мбайт (15%)
Выравнивание : Разделение по промежуткам
Продолжительность промежутка : 42 мс. (1,00 видеокадр)
Время предзагрузки промежутка : 500 ms

Аудио #2
Идентификатор : 2
Формат : AC-3
Формат/Информация : Audio Coding 3
Расширение режима : CM (complete main)
Идентификатор кодека : 2000
Продолжительность : 1 ч. 46 м.
Вид битрейта : Постоянный
Битрейт : 448 Кбит/сек
Каналы : 6 каналов
Расположение каналов : Front: L C R, Side: L R, LFE
Частота : 48,0 КГц
Битовая глубина : 16 бит
Метод сжатия : С потерями
Размер потока : 342 Мбайт (15%)
Выравнивание : Разделение по промежуткам
Продолжительность промежутка : 42 мс. (1,00 видеокадр)
Время предзагрузки промежутка : 500 ms







piratbit.pw



Скачать Солдаты неудачи через торрент http://i42.fastpic.ru/big/2012/0903/e9/408d58a90fdd5fcb2816bed891cc81e9.jpg Скачать фильм Солдаты неудачи через торрент бесплантно в хорошем качестве Описание: Камера. Мотор. Начали! В реальных джунглях проходят съемки суперблокбастера с участием больших звезд, среди которых: крутой герой ... 10 10 5
Info! Золотая раздача, скачанное не засчитывается.
Торрент: Зарегистрирован [2012-09-03 11:35] · скачан: 329 раз
Статус: √ проверено
Размер: 2.18 GB
Как cкачать? Как скачать Солдаты неудачи через торрент | UTorrent

% Раздел Тема Автор DL S | L
Фильмы (HD 720p, 1080p) (48-60 fps) [ 4.36 GB ] Солдаты неудачи / Tropic Thunder [2008 BDRip - HEVC 1080p 10 bit 60 FPS] [Режиссерская версия] DUB dd2d3 Скачать
1 | 0
Фильмы [HD 720p, 1080p] (Хороший звук DUB, MVO) [ 9.43 GB ] Солдаты неудачи / Tropic Thunder [2008 BDRip-HEVC 1080p ] [Режиссерская версия] DUB bober100 Скачать
2 | 0
Фильмы [HD 720p, 1080p] (Хороший звук DUB, MVO) [ 5.13 GB ] Солдаты неудачи / Гром в тропиках / Tropic Thunder [2008 военный BDRip 720p] [Dub + MVO + AVO + Original + Sub Ворон Скачать
1 | 0
Фильмы 2006-2008 [ 1.45 GB ] Солдаты неудачи / Tropic Thunder [2008 Германия HDRip] [Director's Cut / Pежиссерская Bерсия] DUB + MVO Ворон Скачать
1 | 0
Фильмы 2006-2008 [ 748 MB ] Солдаты неудачи / Tropic Thunder [2008 HDRip] [Director's Cut / Pежиссерская Bерсия] DUB + MVO toxa1 Скачать
1 | 0

28-11-2019 20:33  

Отключить всю рекламу на сайте

03-09-2012 12:33 Солдаты неудачи Скачать торрент  

Прикольная комедияpiratbit.pw



03-09-2012 13:37 Солдаты неудачи Скачать торрент  

uroboros451 не узнал там дауни когда в первый раз смотрел:)piratbit.pw



03-09-2012 14:37 Солдаты неудачи Скачать торрент  

dante3732
Я тоже только после 2 просмотра увидел что ето он.Перекрасили беднягу,что и мать родная не узнала б.
piratbit.pw



03-09-2012 17:54 Солдаты неудачи Скачать торрент  

Vetаl вообще не похож:Dpiratbit.pw



    Дорогой пользователь! Огромная просьба, поблагодарите релизера, оцените раздачу и оставьте свои комментарий, если Вы скачали Солдаты неудачи через торрент бесплатно! Внесите свою лепту в развитие PiratBit!
    Комментировать посты могут только пользователи прошедшие не сложную регистрацию
    Показать сообщения:    

    Солдаты неудачи через торрент
    Скачать бесплатно Солдаты неудачи
    Солдаты неудачи скачать торрент
    Солдаты неудачи смотреть онлайн
    Cкачать фильм Солдаты неудачи бесплатно
    Солдаты неудачи скачать торрент в хорошем качестве
    Солдаты неудачи смотреть онлайн бесплатно в хорошем качестве


    Вы не можете начинать темы
    Вы не можете отвечать на сообщения
    Вы не можете редактировать свои сообщения
    Вы не можете удалять свои сообщения
    Вы не можете голосовать в опросах
    Вы не можете прикреплять файлы к сообщениям
    Вы можете скачивать файлы