Marvel's Avengers Deluxe Edition (супер цена) 159р. Внимание количество ограничено!!!

2 сезон

iTunes

iTunes

1

iTunes

iTunes

iTunes

WEBRip

iTunes

30
pack

Новость дня

ВАЖНО

!!Акция!!

Alien_RageХит недели

RePack

Horizon Zero Dawn

ИГРА 18+

pack

RePack

jed

!!Акция!!

Alien_Rage

RePack

fifa19

RePack

Assassins Creed: Odyssey

RePack

NEED FOR SPEED™ PAYBACK

4 сезон

9 сезон

Бесстыжие 9 сезон

Все сериалы

все сериалы на PB.wtf

RePack

FAR CRY 5
  

Веселые истории (Вениамин Дорман) [1962 г., комедия, семейный, DVDRip, Оригинал] piratbit.pw

Веселые истории через торрент piratbit.pw

Размер: 1.37 GB | Добавлен: 8 лет назад | Торрент скачан:47 раз
Скачать  

29-08-2012 09:02 Веселые истории Скачать торрент  

Веселые истории

Год выпуска: 1962
Страна: СССР
Жанр: комедия, семейный
Продолжительность: 01:23:26
Перевод: Оригинал

Режиссер: Вениамин Дорман
Продюссер: Виктор Фрейлих
Сценарий: Виктор Драгунский

Мировой рейтинг IMDB 7.30 (6)


В ролях: Михаил Кисляров, Александр Кекиш, Надежда Фоминцина, Елена Дружинина, Виталий Бондарёв, Андрей Гладков, Игорь Дутов, Тамара Логинова, Георгий Тусузов, Юрий Медведев

Описание: Герои фильма — фантазер и поэт Дениска Кораблев, озорной Мишка, мечтательная Леночка и чрезмерно любопытная Аленка — живут в обыкновенном московском дворе. Они, как и все дети, любят цирк и зоопарк, но не любят манную кашу и домоуправа, который вечно следит за ними и мешает исполнять во дворе всевозможные цирковые номера...

Качество: DVDRip
Формат: AVI
Видео кодек: XviD
Аудио кодек: AC3
Видео: 720x544 (1.32:1), 25 fps, XviD build 47 ~2157 kbps avg, 0.22 bit/pixel
Аудио#1: Русский: 48 kHz, AC3 Dolby Digital, 2/0 (L,R) ch, ~192 kbps
Общее
Полное имя : F:\Закачки\Veselie.Istorii.1962.XviD.DVDRip.avi
Формат : AVI
Формат/Информация : Audio Video Interleave
Размер файла : 1,37 Гбайт
Продолжительность : 1 ч. 23 м.
Общий поток : 2359 Кбит/сек
Программа кодирования : VirtualDubModRus 1.5.10.2 (build 2540/release)
Библиотека кодирования : VirtualDubMod build 2540/release

Видео
Идентификатор : 0
Формат : MPEG-4 Visual
Профиль формата : Advanced Simple@L5
Параметр BVOP формата : 1
Параметр QPel формата : Нет
Параметр GMC формата : Без точки перехода
Параметр матрицы формата : Выборочная
Идентификатор кодека : XVID
Идентификатор кодека/Подсказка : XviD
Продолжительность : 1 ч. 23 м.
Битрейт : 2157 Кбит/сек
Ширина : 720 пикселей
Высота : 544 пикселя
Соотношение сторон : 4:3
Частота кадров : 25,000 кадров/сек
Цветовое пространство : YUV
Субдискретизация насыщенности : 4:2:0
Битовая глубина : 8 бит
Тип развёртки : Прогрессивная
Метод сжатия : С потерями
Бит/(Пиксели*Кадры) : 0.220
Размер потока : 1,26 Гбайт (91%)
Библиотека кодирования : XviD 1.2.0.dev47 (UTC 2006-11-01)

Аудио
Идентификатор : 1
Формат : AC-3
Формат/Информация : Audio Coding 3
Расширение режима : CM (complete main)
Параметр Endianness формата : Big
Идентификатор кодека : 2000
Продолжительность : 1 ч. 23 м.
Вид битрейта : Постоянный
Битрейт : 192 Кбит/сек
Каналы : 2 канала
Расположение каналов : Front: L R
Частота : 48,0 КГц
Битовая глубина : 16 бит
Метод сжатия : С потерями
Размер потока : 115 Мбайт (8%)
Выравнивание : Разделение по промежуткам
Продолжительность промежутка : 40 мс. (1,00 видеокадр)
Время предзагрузки промежутка : 500 мс.
Язык : English

piratbit.pw



Скачать Веселые истории через торрент http://pic.kartinco.top/images/1/9b8hgepq8c.jpg Скачать фильм Веселые истории через торрент бесплантно в хорошем качестве Описание: Герои фильма — фантазер и поэт Дениска Кораблев, озорной Мишка, мечтательная Леночка и чрезмерно любопытная Аленка — живут в ... 10 10 3
Info! Золотая раздача, скачанное не засчитывается.
Торрент: Зарегистрирован [2012-08-29 09:02] · скачан: 47 раз
Статус: √ проверено
Размер: 1.37 GB
Как cкачать? Как скачать Веселые истории через торрент | qTorrent

% Раздел Тема Автор DL S | L
Детские отечественные фильмы [ 1.09 GB ] Весёлые истории [1962 СССР DVDRip-AVC от AVP Studio] AVP Studio Скачать
1 | 0
Кино СССР [ 1.09 GB ] Весёлые истории [1962 СССР DVDRip от AVP Studio] AVP Studio Скачать
1 | 0

28-11-2019 20:33  

Отключить всю рекламу на сайте

29-08-2012 18:03 Веселые истории Скачать торрент  

Спасибо!В детстве была любимая книга про Дениску,теперь дочери прививать буду.piratbit.pw



    Дорогой пользователь! Огромная просьба, поблагодарите релизера, оцените раздачу и оставьте свои комментарий, если Вы скачали Веселые истории через торрент бесплатно! Внесите свою лепту в развитие PiratBit!
    Комментировать посты могут только пользователи прошедшие не сложную регистрацию
    Показать сообщения:    

    Веселые истории через торрент
    Скачать бесплатно Веселые истории
    Веселые истории скачать торрент
    Веселые истории смотреть онлайн
    Cкачать фильм Веселые истории бесплатно
    Веселые истории скачать торрент в хорошем качестве
    Веселые истории смотреть онлайн бесплатно в хорошем качестве


    Вы не можете начинать темы
    Вы не можете отвечать на сообщения
    Вы не можете редактировать свои сообщения
    Вы не можете удалять свои сообщения
    Вы не можете голосовать в опросах
    Вы не можете прикреплять файлы к сообщениям
    Вы можете скачивать файлы