Ссылка на приватное зеркало нашего сайта всего за 1$. Внимание количество ограничено!!!

2 сезон

iTunes

iTunes

1

iTunes

iTunes

iTunes

WEBRip

iTunes

30
pack

Вам бонус

ВАЖНО

!!Акция!!

Alien_RageХит недели

RePack

Horizon Zero Dawn

ИГРА 18+

pack

RePack

jed

!!Акция!!

Alien_Rage

RePack

fifa19

RePack

Assassins Creed: Odyssey

RePack

NEED FOR SPEED™ PAYBACK

4 сезон

9 сезон

Бесстыжие 9 сезон

Все сериалы

все сериалы на PB.wtf

RePack

FAR CRY 5
  

После дождичка в четверг.. (Михаил Юзовский) [1985 г., Детское, семейный, DVDRip, Оригинал] piratbit.pw

После дождичка в четверг.. через торрент piratbit.pw

Качают: 1 [ 0 KB/s ]
Размер: 1.37 GB | Добавлен: 8 лет 1 мес. назад | Торрент скачан:91 раз
Скачать  

11-08-2012 16:19 После дождичка в четверг.. Скачать торрент  

После дождичка в четверг...

Год выпуска: 1985
Страна: СССР
Жанр: Детское, семейный
Продолжительность: 01:14:35
Перевод: Оригинал

Режиссер: Михаил Юзовский
Сценарий: Юлий Ким, Александр Островский

Мировой рейтинг IMDB 7.10 (77)


В ролях: Олег Табаков, Татьяна Пельтцер, Валентина Талызина, Юрий Медведев, Владимир Федоров, Семен Фарада, Олег Анофриев, Владислав Толдыков, Марина Зудина, Алексей Войтюк

Описание: Однажды, после дождичка в четверг, у царя Авдея родился первенец. В тот же день родила мальчика и ключница Варвара, а в капусте был обнаружен новорожденный подкидыш. Всех троих нарекли Иванами - и Авдей приказал растить хлопцев вместе. Однако ключница сделала по-своему: положила в царскую люльку своего Ивана, а двух других отдала разбойникам.
Пройдет двадцать лет, прежде чем сын царевича победит Кощея Бессмертного, найдет отца и освободит Жар-птицу, которая станет прекрасной девушкой. Кроме всевозможных приключений в фильме много песен и танцев.

Качество: DVDRip
Формат: AVI
Видео кодек: XviD
Аудио кодек: AC3
Видео: 720x432 (1.67:1), 25 fps, XviD MPEG-4 ~2243 kbps avg, 0.29 bit/pixel
Аудио#1: Русский: 48 kHz, AC3 Dolby Digital, 3/2 (L,C,R,l,r) + LFE ch, ~384 kbps
Общее
Полное имя : F:\Закачки\Posle.Dozhdbchka.V.Chetverg.DVDRip.1985.avi
Формат : AVI
Формат/Информация : Audio Video Interleave
Размер файла : 1,37 Гбайт
Продолжительность : 1 ч. 14 м.
Общий поток : 2637 Кбит/сек
Программа кодирования : VirtualDubModRus 1.5.10.2 (build 2542/release)
Библиотека кодирования : VirtualDubMod build 2542/release

Видео
Идентификатор : 0
Формат : MPEG-4 Visual
Профиль формата : Advanced Simple@L5
Параметр BVOP формата : 2
Параметр QPel формата : Нет
Параметр GMC формата : Без точки перехода
Параметр матрицы формата : Default (H.263)
Режим смешивания : Сжатый битовый поток
Идентификатор кодека : XVID
Идентификатор кодека/Подсказка : XviD
Продолжительность : 1 ч. 14 м.
Битрейт : 2244 Кбит/сек
Ширина : 720 пикселей
Высота : 432 пикселя
Соотношение сторон : 1,667
Частота кадров : 25,000 кадров/сек
Цветовое пространство : YUV
Субдискретизация насыщенности : 4:2:0
Битовая глубина : 8 бит
Тип развёртки : Прогрессивная
Метод сжатия : С потерями
Бит/(Пиксели*Кадры) : 0.289
Размер потока : 1,17 Гбайт (85%)
Библиотека кодирования : XviD 1.2.1 (UTC 2008-12-04)

Аудио
Идентификатор : 1
Формат : AC-3
Формат/Информация : Audio Coding 3
Расширение режима : CM (complete main)
Параметр Endianness формата : Big
Идентификатор кодека : 2000
Продолжительность : 1 ч. 14 м.
Вид битрейта : Постоянный
Битрейт : 384 Кбит/сек
Каналы : 6 каналов
Расположение каналов : Front: L C R, Side: L R, LFE
Частота : 48,0 КГц
Битовая глубина : 16 бит
Метод сжатия : С потерями
Размер потока : 205 Мбайт (15%)
Выравнивание : Разделение по промежуткам
Продолжительность промежутка : 40 мс. (1,00 видеокадр)
Время предзагрузки промежутка : 500 мс.

piratbit.pw



Скачать После дождичка в четверг.. через торрент http://i43.fastpic.ru/big/2012/0811/0d/ebeffb5652f8094de7b870e11ed03a0d.jpg Скачать фильм После дождичка в четверг.. через торрент бесплантно в хорошем качестве Описание: Однажды, после дождичка в четверг, у царя Авдея родился первенец. В тот же день родила мальчика и ключница Варвара, а в капусте ... 10 10 5
Info! Золотая раздача, скачанное не засчитывается.
Торрент: Зарегистрирован [2012-08-11 16:19] · скачан: 91 раз
Статус: √ проверено
Размер: 1.37 GB
Как cкачать? Как скачать После дождичка в четверг.. через торрент | qTorrent

% Раздел Тема Автор DL S | L
Кино СССР [ 1.09 GB ] После дождичка в четверг [1986 сказка DVDRip-AVC от AVP Studio] Original + Dub AVP Studio Скачать
1 | 0
Кино СССР [ 749 MB ] После дождичка в четверг [1986 сказка DVDRip от AVP Studio] Original + Dub AVP Studio Скачать
1 | 0
Кино СССР [ 700 MB ] После дождичка в четверг ... [1987 DVDRip] VORLKED Скачать
1 | 0

28-11-2019 20:33  

Отключить всю рекламу на сайте

08-10-2013 19:43 После дождичка в четверг.. Скачать торрент  

Тук-тук!!! А как-бы скачать? Люди!!! piratbit.pw



    Дорогой пользователь! Огромная просьба, поблагодарите релизера, оцените раздачу и оставьте свои комментарий, если Вы скачали После дождичка в четверг.. через торрент бесплатно! Внесите свою лепту в развитие PiratBit!
    Комментировать посты могут только пользователи прошедшие не сложную регистрацию
    Показать сообщения:    

    После дождичка в четверг.. через торрент
    Скачать бесплатно После дождичка в четверг..
    После дождичка в четверг.. скачать торрент
    После дождичка в четверг.. смотреть онлайн
    Cкачать фильм После дождичка в четверг.. бесплатно
    После дождичка в четверг.. скачать торрент в хорошем качестве
    После дождичка в четверг.. смотреть онлайн бесплатно в хорошем качестве


    Вы не можете начинать темы
    Вы не можете отвечать на сообщения
    Вы не можете редактировать свои сообщения
    Вы не можете удалять свои сообщения
    Вы не можете голосовать в опросах
    Вы не можете прикреплять файлы к сообщениям
    Вы можете скачивать файлы