Мега распродажа FORZA HORIZON 4 ULTIMATE+ВСЕ DLC+ОНЛАЙН всего за 499р. 349 руб. (супер цена). Внимание количество ограничено!!!

iTunes

1+1

iTunes

мы

iTunes

1

1 сезон

Чернобыль

1 сезон

Ральф против интернета

Лицензия

ПШазам

8 сезон

Игра престолов

Лицензия

30
pack

ВАЖНО

!!Акция!!

Alien_RageХит недели

RePack

Resident Evil 21

ИГРА 18+

pack

RePack

Metro:Exodus

!!Акция!!

Alien_Rage

RePack

fifa19

RePack

Assassins Creed: Odyssey

RePack

NEED FOR SPEED™ PAYBACK

3 сезон

9 сезон

Бесстыжие 9 сезон

Все сериалы

все сериалы на PB.wtf

RePack

FAR CRY 5
Ребята, катастрофически не хватает 2730р. для оплаты серверов за ИЮНЬ (всвязи с блокировками трафик упал в 3 раза), 1-2р., выручайте.
  

Пришло время любить 2 / Lude Godine II (Зоран Чалич / Zoran Calic) [1978 г., Комедия, мелодрама, VHSRip] DUB piratbit.pw

Пришло время любить 2 через торрент piratbit.pw

Размер: 747 MB | Добавлен: 6 лет 3 мес. назад | Торрент скачан:17 раз
Скачать  

08-08-2012 06:55 Пришло время любить 2 Скачать торрент  

Пришло время любить 2 / Lude Godine II

Год выпуска: 1978
Страна: Югославия / "Звезда-фильм"
Жанр: Комедия, мелодрама
Продолжительность: 01:26:49
Перевод: Профессиональный (полное дублирование) Советский дубляж
Cубтитры: Нет

Режиссер: Зоран Чалич / Zoran Calic

В ролях: Риалда Кадрич, Владимир Петрович, Драгомир Гидра Боянич, Марко Тодорович, Дара Каленич, Елена Жигон, Велимир Бата Живойнович, Любиша Самарджич.

Описание: Десятиклассники Мария и Бобо полюбили друг друга с первого взгляда. Но недолго длилось их счастье. Мария поняла, что у нее будет ребенок и, боясь родительского гнева, решилась на крайние меры. Врачам с трудом удалось спасти ей жизнь. Тяжело переживая случившееся, юные влюбленные остались верны своему чувству. Любовь оказалась сильнее всех препятствий. Окончив школу, начав работать, уладив все недоразумения с родителями, Бобо и Мария стали мужем и женой.

Сэмпл: http://multi-up.com/743356

Качество: VHSRip
Формат: AVI
Видео кодек: XviD
Аудио кодек: MP3
Видео: 704x464 (1.52:1), 25 fps, XviD build 50 ~1064 kbps avg, 0.13 bit/pixel
Аудио: 48 kHz, MPEG Layer 3, 2 ch, ~128.00 kbps avg
Общее
Полное имя : D:\Рип\Пришло время любить 2.avi
Формат : AVI
Формат/Информация : Audio Video Interleave
Размер файла : 747 Мбайт
Продолжительность : 1 ч. 26 м.
Общий поток : 1203 Кбит/сек
Программа кодирования : VirtualDubMod 1.5.10.3 | www.virtualdub-fr.org || (build 2550/release)
Библиотека кодирования : VirtualDubMod build 2550/release

Видео
Идентификатор : 0
Формат : MPEG-4 Visual
Профиль формата : Advanced Simple@L5
Параметр BVOP формата : 1
Параметр QPel формата : Нет
Параметр GMC формата : Без точки перехода
Параметр матрицы формата : Default (MPEG)
Идентификатор кодека : XVID
Идентификатор кодека/Подсказка : XviD
Продолжительность : 1 ч. 26 м.
Битрейт : 1065 Кбит/сек
Ширина : 704 пикселя
Высота : 464 пикселя
Соотношение сторон : 3:2
Частота кадров : 25,000 кадров/сек
Цветовое пространство : YUV
Субдискретизация насыщенности : 4:2:0
Битовая глубина : 8 бит
Тип развёртки : Прогрессивная
Метод сжатия : С потерями
Бит/(Пиксели*Кадры) : 0.130
Размер потока : 661 Мбайт (89%)
Библиотека кодирования : XviD 1.2.1 (UTC 2008-12-04)

Аудио
Идентификатор : 1
Формат : MPEG Audio
Версия формата : Version 1
Профиль формата : Layer 3
Идентификатор кодека : 55
Идентификатор кодека/Подсказка : MP3
Продолжительность : 1 ч. 26 м.
Вид битрейта : Постоянный
Битрейт : 128 Кбит/сек
Каналы : 2 канала
Частота : 48,0 КГц
Метод сжатия : С потерями
Размер потока : 79,5 Мбайт (11%)
Выравнивание : Соединение по промежуткам
Продолжительность промежутка : 40 мс. (1,00 видеокадр)
Время предзагрузки промежутка : 504 мс.
Библиотека кодирования : LAME3.98r
Настройки программы : -m s -V 4 -q 2 -lowpass 17 -b 128
piratbit.pw



Скачать Пришло время любить 2 через торрент http://i40.fastpic.ru/big/2012/0808/d8/ed21f379b68fa5aa97e65104f0758dd8.jpg Скачать фильм Пришло время любить 2 через торрент бесплантно в хорошем качестве Описание: Десятиклассники Мария и Бобо полюбили друг друга с первого взгляда. Но недолго длилось их счастье. Мария поняла, что у нее будет ... 5 10 1
Info! Золотая раздача, скачанное не засчитывается.
Торрент: Зарегистрирован [2013-03-25 16:18] · скачан: 17 раз
Статус: √ проверено
Размер: 747 MB
Как cкачать? Как скачать Пришло время любить 2 через торрент | qTorrent


>> Регистрируемся здесь <<






Отзывы и комментарии о схеме читаем и пишем здесь: ---> Отзывы и комментарии о схеме

Новые благодарочки в телеграм довольных пользователей:
скриншот   скриншот   скриншот   скриншот   скриншот

08-08-2012 17:42 Пришло время любить 2 Скачать торрент  

спасибо за юность! А разве есть 1-я часть, выложите пожалуйста !piratbit.pw



    Дорогой пользователь! Огромная просьба, поблагодарите релизера, оцените раздачу и оставьте свои комментарий, если Вы скачали Пришло время любить 2 через торрент бесплатно! Внесите свою лепту в развитие PiratBit!
    Комментировать посты могут только пользователи прошедшие не сложную регистрацию
    Показать сообщения:    

    Пришло время любить 2 через торрент
    Скачать бесплатно Пришло время любить 2
    Пришло время любить 2 скачать торрент
    Пришло время любить 2 смотреть онлайн
    Cкачать фильм Пришло время любить 2 бесплатно
    Пришло время любить 2 скачать торрент в хорошем качестве
    Пришло время любить 2 смотреть онлайн бесплатно в хорошем качестве


    Вы не можете начинать темы
    Вы не можете отвечать на сообщения
    Вы не можете редактировать свои сообщения
    Вы не можете удалять свои сообщения
    Вы не можете голосовать в опросах
    Вы не можете прикреплять файлы к сообщениям
    Вы можете скачивать файлы