новый адрес
Ссылка на приватное зеркало всего за 1$. Внимание количество ограничено!!!

iTunes

1+1

iTunes

мы

WEB-DL

1

iTunes

Чернобыль

iTunes

Ральф против интернета

Лицензия

ПШазам

Лицензия

Оно 2

Лицензия

30
pack

Вам бонус

ВАЖНО

!!Акция!!

Alien_RageХит недели

RePack

Resident Evil 21

ИГРА 18+

pack

RePack

jed

!!Акция!!

Alien_Rage

RePack

fifa19

RePack

Assassins Creed: Odyssey

RePack

NEED FOR SPEED™ PAYBACK

3 сезон

9 сезон

Бесстыжие 9 сезон

Все сериалы

все сериалы на PB.wtf

RePack

FAR CRY 5
Ребята, катастрофически не хватает 1900р. для оплаты серверов за Октябрь (всвязи с блокировками трафик упал в 3 раза), 1-2р., выручайте.
  

Чистыми руками / Cu mîinile curate (Серджиу Николаеску) [1974 г., Боевик, Триллер, Детектив, DVDRip, DUB (лицензия)] piratbit.pw

Чистыми руками через торрент piratbit.pw

Размер: 1.37 GB | Добавлен: 7 лет 4 мес. назад | Торрент скачан:33 раза
Скачать  

03-08-2012 09:33 Чистыми руками Скачать торрент  

Чистыми руками / Cu mîinile curate

Год выпуска: 1974
Страна: Германия (ФРГ), Румыния
Жанр: Боевик, Триллер, Детектив
Продолжительность:01:35:17
Перевод: Дубляж (Лицензия)

Режиссер: Серджиу Николаеску
Сценарий: Титус Попович, Петре Сэлкудяну

Премьера в мире: 7 июня 1974

IMDb: 7.00 (468)
Кинопоиск: 7.390 88

В ролях: Нита Анастасе, Ион Апахидяну, Корина Кириак, Иларион Чобану, Джордже Константин, Стелиан Кременчюк, Георге Диникэ, Александру Добреску, Дорин Дрон, Жан Лорин Флореску

Описание: Апрель 1945 года. Бухарест потрясают известия о новых и новых преступлениях, совершенных бандой неуловимого Семаки, короля уголовного мира румынской столицы. В это время на службу в полицию приходит Михай Роман.

Его новый коллега и напарник — человек совершенно иных взглядов, иного темперамента и воспитания комиссар Миклован. Он ни в чем не сходятся, как Жеглов и Шарапов, но, тем не менее, борьба противоположностей приводит к потрясающему результату — уничтожению банды Семаки.

Дополнительная информация: Легендарный боевик из моего детства.
Как же он был прекрасен — этот героический комиссар Миклован! Жесткое лицо с улыбочкой, от которой у матерых бандитов дрожали коленки. Всегда одет с иголочки, в элегантном костюме и шляпе. И конечно верный револьвер на поясе, мгновенно вылетающий из кобуры и из которого не бывает промахов.

Я ходил в детстве на этот фильм бессчетное количество раз — знал его наизусть. Сравним с Миклованом Серджиу Николаеску был разве что Бельмондо в «Частном детективе».

Почему же такая любовь к этому фильму? Я думаю секреты просты — чистота жанра (классический боевик) и мастерство исполнения.

Здесь не было занудных размышлений о смысле жизни, а была быстрая дуэль хороших парней с плохими, под визжащие звуки выстрелов и напряженные гитарные риффы. Прав тот, у кого в руках пистолет и плохо тому, у кого его не оказалось в трудную минуту. Было жестокое, смертельное противостояние хороших полицейских и плохих бандитов. И то, что некоторые бандиты помогали нашим, а один продажный полицейский помогал бандитам, сути дела не меняло. Добро с кулаками побеждало зло, и это было правильно.

Что любопытно — в советской прокатной версии вырезали все сцены, где героический комиссар Миклован избивает бандитов в то время, как его начальник коммунист держит их под прицелом. Да и звали комиссара, оказывается Молдован, что нашим цензорам показалось политически неблагозвучным.

Но это все мелочи, по сравнению с той светлой памятью, которую этот фильм по себе оставил.
В вырезанных сов. цензурой местах вставки - одноголосый перевод.

Качество: DVDRip
Формат: AVI
Видео кодек: XviD
Аудио кодек: AC3
Видео: 688x512 (1.34:1), 25 fps, XviD build 47 ~1663 kbps avg, 0.19 bit/pixel
Аудио#1: 48 kHz, AC3 Dolby Digital, 1/0 (C) ch, ~192.00 kbps avg (Советский дубляж)
Аудио#2: 48 kHz, AC3 Dolby Digital, 2/0 (L,R) ch, ~192.00 kbps avg (Профессиональный (одноголосый))


Общее
Полное имя : H:torrentChistymi.rukami.1974.XviD.DVDRip-сторонний ресурс.avi
Формат : AVI
Формат/Информация : Audio Video Interleave
Размер файла : 1,37 Гбайт
Продолжительность : 1 ч. 35 м.
Общий поток : 2057 Кбит/сек
Программа кодирования : VirtualDubMod 1.5.4.1 (build 2178/release)
Библиотека кодирования : VirtualDubMod build 2178/release

Видео
Идентификатор : 0
Формат : MPEG-4 Visual
Профиль формата : Advanced Simple@L5
Параметр BVOP формата : 1
Параметр QPel формата : Нет
Параметр GMC формата : Без точки перехода
Параметр матрицы формата : Выборочная
Идентификатор кодека : XVID
Идентификатор кодека/Подсказка : XviD
Продолжительность : 1 ч. 35 м.
Битрейт : 1664 Кбит/сек
Ширина : 688 пикс.
Высота : 512 пикс.
Соотношение сторон : 4:3
Частота кадров : 25,000 кадр/сек
Цветовое пространство : YUV
Подвыборка цветности : 4:2:0
Битовая глубина : 8 бит
Тип развёртки : Прогрессивная
Метод сжатия : С потерями
Бит/(Пиксели*Кадры) : 0.189
Размер потока : 1,11 Гбайт (81%)
Библиотека кодирования : XviD 1.2.0.dev47 (UTC 2006-11-01)

Аудио #1
Идентификатор : 1
Формат : AC-3
Формат/Информация : Audio Coding 3
Расширение режима : CM (complete main)
Идентификатор кодека : 2000
Продолжительность : 1 ч. 35 м.
Вид битрейта : Постоянный
Битрейт : 192 Кбит/сек
Каналы : 1 канал
Расположение каналов : Front: C
Частота : 48,0 КГц
Битовая глубина : 16 бит
Метод сжатия : С потерями
Размер потока : 131 Мбайт (9%)
Выравнивание : Разделение по промежуткам
Продолжительность промежутка : 96 мс. (2,40 видеокадра)
Время предзагрузки промежутка : 96 ms
Язык : Russian

Аудио #2
Идентификатор : 2
Формат : AC-3
Формат/Информация : Audio Coding 3
Расширение режима : CM (complete main)
Идентификатор кодека : 2000
Продолжительность : 1 ч. 35 м.
Вид битрейта : Постоянный
Битрейт : 192 Кбит/сек
Каналы : 2 канала
Расположение каналов : Front: L R
Частота : 48,0 КГц
Битовая глубина : 16 бит
Метод сжатия : С потерями
Размер потока : 131 Мбайт (9%)
Выравнивание : Разделение по промежуткам
Продолжительность промежутка : 96 мс. (2,40 видеокадра)
Время предзагрузки промежутка : 96 ms
Язык : Russian




piratbit.pw



Скачать Чистыми руками через торрент http://pic.kartinco.top/images/1/2jjjmjucd1.jpg Скачать фильм Чистыми руками через торрент бесплантно в хорошем качестве Описание: Апрель 1945 года. Бухарест потрясают известия о новых и новых преступлениях, совершенных бандой неуловимого Семаки, короля ... 9 10 2
Info! Золотая раздача, скачанное не засчитывается.
Торрент: Зарегистрирован [2012-08-03 09:33] · скачан: 33 раз
Статус: √ проверено
Размер: 1.37 GB
Как cкачать? Как скачать Чистыми руками через торрент | qTorrent

28-11-2019 20:33  

Отключить всю рекламу на сайте


    Дорогой пользователь! Огромная просьба, поблагодарите релизера, оцените раздачу и оставьте свои комментарий, если Вы скачали Чистыми руками через торрент бесплатно! Внесите свою лепту в развитие PiratBit!
    Комментировать посты могут только пользователи прошедшие не сложную регистрацию
    Показать сообщения:    

    Чистыми руками через торрент
    Скачать бесплатно Чистыми руками
    Чистыми руками скачать торрент
    Чистыми руками смотреть онлайн
    Cкачать фильм Чистыми руками бесплатно
    Чистыми руками скачать торрент в хорошем качестве
    Чистыми руками смотреть онлайн бесплатно в хорошем качестве


    Вы не можете начинать темы
    Вы не можете отвечать на сообщения
    Вы не можете редактировать свои сообщения
    Вы не можете удалять свои сообщения
    Вы не можете голосовать в опросах
    Вы не можете прикреплять файлы к сообщениям
    Вы можете скачивать файлы