Ссылка на приватное зеркало всего за 1$. Внимание количество ограничено!!!

iTunes

iTunes

iTunes

1

iTunes

iTunes

iTunes

WEBRip

iTunes

30
pack

$ от Little Big

ВАЖНО

!!Акция!!

Alien_RageХит недели

RePack

Resident Evil 21

ИГРА 18+

pack

RePack

jed

!!Акция!!

Alien_Rage

RePack

fifa19

RePack

Assassins Creed: Odyssey

RePack

NEED FOR SPEED™ PAYBACK

4 сезон

9 сезон

Бесстыжие 9 сезон

Все сериалы

все сериалы на PB.wtf

RePack

FAR CRY 5
  

Это было в разведке (Лев Мирский) [1968 г., Драма, военный, DVDRip] piratbit.pw

Это было в разведке через торрент piratbit.pw

Размер: 1.36 GB | Добавлен: 8 лет назад | Торрент скачан:65 раз
Скачать  

29-07-2012 16:58 Это было в разведке Скачать торрент  

Это было в разведке

Год выпуска: 1968
Страна: СССР
Жанр: Драма, военный
Продолжительность: 01:28:17
Перевод: Не требуется

Режиссер: Лев Мирский




В ролях: Виктор Жуков, Валерий Малышев, Владимир Грамматиков, Виктор Филиппов, Наталья Величко, Сергей Пожарский, Виктор Задубровский, Валерий Кузьмин, Виктор Шахов, Шавкат Газиев, Леонид Реутов, Станислав Симонов, Евгений Евстигнеев, Николай Волков мл.

Описание: О подвигах двенадцатилетнего мальчика-разведчика, героя Великой Отечественной войны. Фильм создан по реальным событиям из боевой биографии разведчика Александра Ивановича Колесникова. Юный Саша, как и герой фильма Вася Колосов, сбежал со своим другом в 1943 году на фронт. В отличие от прототипа, герой фильма - сирота. В эшелоне Вася знакомится с сержантом, который проявил участе к судьбе паренька. Сержант его привозит в танковую часть. Во избежания хлопот, связанных с появлением мальчугана, командир приказывает отправить парня в тыл. Но Вася сбегает от провожатых и даже умудряется в лесу обнаружить немецкого парашютиста. Получив медаль за поимку фашиста, Василий становится своим для танкистов. Впереди новые приключения: плен, чудесное спасение из лап врага и новая встреча с танкистами.

Качество: DVDRip
Формат: AVI
Видео кодек: XviD
Аудио кодек: AC3
Видео: 688x352 (1.95:1), 25 fps, XviD MPEG-4 ~2007 kbps avg, 0.33 bit/pixel
Аудио#1: Русский: 48 kHz, AC3 Dolby Digital, 2/0 (L,R) ch, ~192 kbps
Общее
Полное имя : F:\Закачки\Eto.Bylo.V.Razvedke.1968.XviD.DVDRip.avi
Формат : AVI
Формат/Информация : Audio Video Interleave
Размер файла : 1,36 Гбайт
Продолжительность : 1 ч. 28 м.
Общий поток : 2209 Кбит/сек
Программа кодирования : FairUse Wizard - http://fairusewizard.com
Библиотека кодирования : The best and REALLY easy backup tool

Видео
Идентификатор : 0
Формат : MPEG-4 Visual
Профиль формата : Advanced Simple@L5
Параметр BVOP формата : 1
Параметр QPel формата : Нет
Параметр GMC формата : Без точки перехода
Параметр матрицы формата : Default (MPEG)
Режим смешивания : Сжатый битовый поток
Идентификатор кодека : XVID
Идентификатор кодека/Подсказка : XviD
Продолжительность : 1 ч. 28 м.
Битрейт : 2007 Кбит/сек
Ширина : 688 пикселей
Высота : 352 пикселя
Соотношение сторон : 1,955
Частота кадров : 25,000 кадров/сек
Цветовое пространство : YUV
Субдискретизация насыщенности : 4:2:0
Битовая глубина : 8 бит
Тип развёртки : Прогрессивная
Метод сжатия : С потерями
Бит/(Пиксели*Кадры) : 0.332
Размер потока : 1,24 Гбайт (91%)
Библиотека кодирования : XviD 1.2.0.dev47 (UTC 2006-11-01)

Аудио
Идентификатор : 1
Формат : AC-3
Формат/Информация : Audio Coding 3
Расширение режима : CM (complete main)
Параметр Endianness формата : Big
Идентификатор кодека : 2000
Продолжительность : 1 ч. 28 м.
Вид битрейта : Постоянный
Битрейт : 192 Кбит/сек
Каналы : 2 канала
Расположение каналов : Front: L R
Частота : 48,0 КГц
Битовая глубина : 16 бит
Метод сжатия : С потерями
Размер потока : 121 Мбайт (9%)
Выравнивание : Разделение по промежуткам
Продолжительность промежутка : 40 мс. (1,00 видеокадр)
Время предзагрузки промежутка : 500 мс.

piratbit.pw



Скачать Это было в разведке через торрент http://pic.kartinco.top/images/1/ics3nfcr9t.jpg Скачать фильм Это было в разведке через торрент бесплантно в хорошем качестве Описание: О подвигах двенадцатилетнего мальчика-разведчика, героя Великой Отечественной войны. Фильм создан по реальным событиям из боевой ... 9.7 10 6
Info! Золотая раздача, скачанное не засчитывается.
Торрент: Зарегистрирован [2012-07-29 16:58] · скачан: 65 раз
Статус: √ проверено
Размер: 1.36 GB
Как cкачать? Как скачать Это было в разведке через торрент | qTorrent

% Раздел Тема Автор DL S | L
Кино СССР [ 1.23 GB ] Это было в разведке / Eto bylo v razvedke [1968 военный DVDRip] feldeger Скачать
1 | 0

28-11-2019 20:33  

Отключить всю рекламу на сайте

    Дорогой пользователь! Огромная просьба, поблагодарите релизера, оцените раздачу и оставьте свои комментарий, если Вы скачали Это было в разведке через торрент бесплатно! Внесите свою лепту в развитие PiratBit!
    Комментировать посты могут только пользователи прошедшие не сложную регистрацию
    Показать сообщения:    

    Это было в разведке через торрент
    Скачать бесплатно Это было в разведке
    Это было в разведке скачать торрент
    Это было в разведке смотреть онлайн
    Cкачать фильм Это было в разведке бесплатно
    Это было в разведке скачать торрент в хорошем качестве
    Это было в разведке смотреть онлайн бесплатно в хорошем качестве


    Вы не можете начинать темы
    Вы не можете отвечать на сообщения
    Вы не можете редактировать свои сообщения
    Вы не можете удалять свои сообщения
    Вы не можете голосовать в опросах
    Вы не можете прикреплять файлы к сообщениям
    Вы можете скачивать файлы