1 сезон

1 сезон

iTunes

1

iTunes

Кинопоиск HD

iTunes

13

1 сезон

RePack

30

Deluxe

ВАЖНО

ИГРА 18+

pack

RePack

MK11
pack

Легкие деньги

RePack

jed

RePack

fifa19

RePack

RDR2

RePack

NEED FOR SPEED™ PAYBACK

4 сезон

9 сезон

Бесстыжие 9 сезон

Все сериалы

все сериалы на PB.wtf

RePack

FAR CRY 5
  
Magnet ссылка

Иллюзионист / The Illusionist (Нил Бёргер) [2006 г., триллер, драма, мелодрама, детектив, DVDRip, DUB (лицензия)] piratbit.pw

Иллюзионист через торрент piratbit.pw

Размер: 1.37 GB | Добавлен: 8 лет 9 мес. назад | Торрент скачан:389 раз
Скачать  

15-07-2012 12:51 Иллюзионист Скачать торрент  

Иллюзионист / The Illusionist

Год выпуска: 2006
Страна: США, Чехия
Жанр: триллер, драма, мелодрама, детектив
Продолжительность: 01:45:02
Перевод: Дубляж (Лицензия)

Режиссер: Нил Бёргер
Продюссер: Кэти Шульман, Боб Яри, Брайан Коппельман
Сценарий: Нил Бёргер, Стивен Миллхаузер

Бюджет: $16 500 000
Премьера в мире: 27 апреля 2006

PG-13 детям до 13 лет просмотр не желателен
IMDb: 7.60 (153 618)



В ролях: Эдвард Нортон, Пол Джаматти, Джессика Бил, Руфус Сьюэлл, Эдди Марсан, Джейк Вуд, Том Фишер, Аарон Джонсон, Элинор Томлинсон, Карл Джонсон

Описание: Вена. Начало 20 века. В городе появляется загадочный человек, называвший себя иллюзионистом Эйзенхаймом. Он показывает публике невиданные фокусы, которые кажутся не иначе как волшебством.

Слава о необыкновенном чародее доходит до кронпринца Леопольда, который почтил своим присутствием одно из представлений Эйзенхайма. Леопольда сопровождает его будущая невеста Софи. Её появление в зале дает толчок для целой вереницы необъяснимых событий, корни которых уходят в прошлое…

Качество: DVDRip
Формат: AVI
Видео кодек: XviD
Аудио кодек: AC3
Видео: 720x378 (1.90:1), 25 fps, XviD MPEG-4 ~1406 kbps avg, 0.21 bit/pixel
Аудио#1: 48 kHz, AC3 Dolby Digital, 3/2 (L,C,R,l,r) + LFE ch, ~448 kbps









General
Complete name : D:\Фильмы\Ост\The_Illusionist.avi
Format : AVI
Format/Info : Audio Video Interleave
File size : 1.37 GiB
Duration : 1h 45mn
Overall bit rate : 1 864 Kbps
Writing application : VirtualDubMod 1.5.10.2 (build 2540/release)
Writing library : VirtualDubMod build 2540/release

Video
ID : 0
Format : MPEG-4 Visual
Format profile : Advanced Simple@L5
Format settings, BVOP : 2
Format settings, QPel : No
Format settings, GMC : No warppoints
Format settings, Matrix : Default (MPEG)
Muxing mode : Packed bitstream
Codec ID : XVID
Codec ID/Hint : XviD
Duration : 1h 45mn
Bit rate : 1 407 Kbps
Width : 720 pixels
Height : 378 pixels
Display aspect ratio : 1.905
Frame rate : 25.000 fps
Color space : YUV
Chroma subsampling : 4:2:0
Bit depth : 8 bits
Scan type : Progressive
Compression mode : Lossy
Bits/(Pixel*Frame) : 0.207
Stream size : 1.03 GiB (75%)
Writing library : XviD 1.2.0SMP (UTC 2006-01-08)

Audio
ID : 1
Format : AC-3
Format/Info : Audio Coding 3
Mode extension : CM (complete main)
Codec ID : 2000
Duration : 1h 45mn
Bit rate mode : Constant
Bit rate : 448 Kbps
Channel(s) : 6 channels
Channel positions : Front: L C R, Side: L R, LFE
Sampling rate : 48.0 KHz
Bit depth : 16 bits
Compression mode : Lossy
Stream size : 337 MiB (24%)
Alignment : Split accross interleaves
Interleave, duration : 40 ms (1.00 video frame)
Interleave, preload duration : 500 ms

piratbit.pw



Скачать Иллюзионист через торрент https://pic1.kartinco.top/images/111/yqrbklcekt.jpg Скачать фильм Иллюзионист через торрент бесплантно в хорошем качестве Описание: Вена. Начало 20 века. В городе появляется загадочный человек, называвший себя иллюзионистом Эйзенхаймом. Он показывает публике ... 10 10 13
Info! Золотая раздача, скачанное не засчитывается.
Торрент: Зарегистрирован [2012-07-15 12:51] · скачан: 389 раз
Статус: √ проверено
Размер: 1.37 GB
Как cкачать? Как скачать Иллюзионист через торрент | UTorrent

% Раздел Тема Автор DL S | L
Фильмы 2006-2008 [ 2.19 GB ] Иллюзионист / The Illusionist [2006 Мело BDRip-AVC] DUB killermax2013 Скачать
1 | 0
Фильмы (Blu-ray, BD-Remux, HDDVD) [ 19.4 GB ] Иллюзионист / The Illusionist [2006 Чехия BDRemux] DUB -Lockdown- Скачать
1 | 0
Фильмы [HD 720p, 1080p] (Хороший звук DUB, MVO) [ 5.53 GB ] Иллюзионист / The Illusionist [2006 BDRip лицензия] BaRSSS Скачать
1 | 0
Фильмы [HD 720p, 1080p] (Хороший звук DUB, MVO) [ 8.81 GB ] Иллюзионист / The Illusionist [2006 BDRip 1080р] smaster Скачать
1 | 0
Фильмы 2006-2008 [ 2.18 GB ] Иллюзионист / The Illusionist [2006 BDRip-AVC] -=BIGBOSS=- Скачать
1 | 0
Фильмы 2006-2008 [ 744 MB ] Иллюзионист / Illusionist The [2006 ... HDRip] Venxxx Скачать
1 | 0
Фильмы [HD 720p, 1080p] (Хороший звук DUB, MVO) [ 4.37 GB ] Иллюзионист / The Illusionist [2006 BDRip] [720p|DVD5] Курортник Скачать
1 | 0

28-11-2019 20:33  

Отключить всю рекламу на сайте


    Дорогой пользователь! Огромная просьба, поблагодарите релизера, оцените раздачу и оставьте свои комментарий, если Вы скачали Иллюзионист через торрент бесплатно! Внесите свою лепту в развитие PiratBit!
    Комментировать посты могут только пользователи прошедшие не сложную регистрацию
    Показать сообщения:    

    Иллюзионист через торрент
    Скачать бесплатно Иллюзионист
    Иллюзионист скачать торрент
    Иллюзионист смотреть онлайн
    Cкачать фильм Иллюзионист бесплатно
    Иллюзионист скачать торрент в хорошем качестве
    Иллюзионист смотреть онлайн бесплатно в хорошем качестве


    Вы не можете начинать темы
    Вы не можете отвечать на сообщения
    Вы не можете редактировать свои сообщения
    Вы не можете удалять свои сообщения
    Вы не можете голосовать в опросах
    Вы не можете прикреплять файлы к сообщениям
    Вы можете скачивать файлы