Ссылка на приватное зеркало нашего сайта всего за 1$. Внимание количество ограничено!!!

2 сезон

iTunes

iTunes

1

iTunes

iTunes

iTunes

WEBRip

iTunes

30
pack

Новость дня

ВАЖНО

!!Акция!!

Alien_RageХит недели

RePack

Horizon Zero Dawn

ИГРА 18+

pack

RePack

jed

!!Акция!!

Alien_Rage

RePack

fifa19

RePack

Assassins Creed: Odyssey

RePack

NEED FOR SPEED™ PAYBACK

4 сезон

9 сезон

Бесстыжие 9 сезон

Все сериалы

все сериалы на PB.wtf

RePack

FAR CRY 5
  

Матч (Андрей Малюков) [2012 г., драма, спорт, BDRip 1080p] |лицензия| piratbit.pw

Матч через торрент piratbit.pw

Размер: 8.05 GB | Добавлен: 8 лет 2 мес. назад | Торрент скачан:56 раз
Скачать  

05-07-2012 22:45 Матч Скачать торрент  

Матч

Год выпуска: 2012
Страна: Россия
Жанр: драма, спорт
Продолжительность: 01:57:36
Перевод: Оригинал |Лицензия|
Режиссер: Андрей Малюков
Продюссер: Илья Неретин, Дмитрий Куликов, Тимофей Сергейцев
Сценарий: Тимофей Сергейцев, Игорь Сосна, Дмитрий Зверьков
В ролях: Сергей Безруков, Елизавета Боярская, Эдуард Безродный, Екатерина Климова, Дирк Мартенс, Александр Крыжановский, Александр Кобзарь, Сергей Романович, Игорь Гнездилов, Никита Тезин
Описание: 1942 год. Николай Раневич, вратарь и звезда киевского «Динамо», теряет самое дорогое — свободу, любимую девушку Анну и возможность играть в футбол. Анна спасает Николая из плена, но теперь они не могут быть вместе...Немцы устраивают чемпионат по футболу между местными командами и сборной Вермахта. Раневич собирает друзей и вновь выходит на поле играть за свою честь, за любовь, за Родину!

Качество: BDRip 1080p
Формат: MKV
Видео кодек: AVC
Аудио кодек: DTS
Видео: AVC, 8292 Кбит/с, 1920x1040 (16/9), 25 fps
Аудио: DTS, 6 ch, 1510 Кбит/с, 48 kHz
Общее
Уникальный идентификатор : 178688095870898035169545442211193439591 (0x866E1350F99792688D1961ECFE944567)
Полное имя : D:\торренты\Match.2012.O.BDRip.1080p.mkv
Формат : Matroska
Версия формата : Version 2
Размер файла : 8,05 Гбайт
Продолжительность : 1 ч. 57 м.
Общий поток : 9797 Кбит/сек
Название фильма : Match.2012.BDRip.1080p.x264-BufeR
Дата кодирования : UTC 2012-07-04 09:30:26
Программа кодирования : mkvmerge v5.5.0 ('Healer') built on Apr 6 2012 21:43:24
Библиотека кодирования : libebml v1.2.3 + libmatroska v1.3.0

Видео
Идентификатор : 1
Формат : AVC
Формат/Информация : Advanced Video Codec
Профиль формата : High@L4.1
Параметр CABAC формата : Да
Параметр ReFrames формата : 4 кадра
Идентификатор кодека : V_MPEG4/ISO/AVC
Продолжительность : 1 ч. 57 м.
Битрейт : 8292 Кбит/сек
Ширина : 1920 пикселей
Высота : 1040 пикселей
Соотношение сторон : 16:9
Частота кадров : 25,000 кадров/сек
Цветовое пространство : YUV
Субдискретизация насыщенности : 4:2:0
Битовая глубина : 8 бит
Тип развёртки : Прогрессивная
Бит/(Пиксели*Кадры) : 0.166
Размер потока : 6,65 Гбайт (83%)
Заголовок : Match.2012.BDRip.1080p.x264-BufeR
Библиотека кодирования : x264 core 124 r2197 69a0443
Настройки программы : cabac=1 / ref=4 / deblock=1:-3:-3 / analyse=0x3:0x113 / me=umh / subme=11 / psy=1 / psy_rd=0.95:0.00 / mixed_ref=1 / me_range=32 / chroma_me=1 / trellis=2 / 8x8dct=1 / cqm=0 / deadzone=21,11 / fast_pskip=0 / chroma_qp_offset=-2 / threads=6 / sliced_threads=0 / nr=0 / decimate=1 / interlaced=0 / bluray_compat=0 / constrained_intra=0 / bframes=6 / b_pyramid=2 / b_adapt=2 / b_bias=0 / direct=3 / weightb=1 / open_gop=0 / weightp=2 / keyint=250 / keyint_min=23 / scenecut=40 / intra_refresh=0 / rc_lookahead=40 / rc=2pass / mbtree=0 / bitrate=8292 / ratetol=1.0 / qcomp=0.60 / qpmin=10 / qpmax=69 / qpstep=4 / cplxblur=20.0 / qblur=0.5 / vbv_maxrate=50000 / vbv_bufsize=50000 / nal_hrd=none / ip_ratio=1.40 / pb_ratio=1.30 / aq=1:1.00
Язык : Russian
Default : Да
Forced : Нет

Аудио
Идентификатор : 2
Формат : DTS
Формат/Информация : Digital Theater Systems
Идентификатор кодека : A_DTS
Продолжительность : 1 ч. 57 м.
Вид битрейта : Постоянный
Битрейт : 1510 Кбит/сек
Каналы : 6 каналов
Расположение каналов : Front: L C R, Side: L R, LFE
Частота : 48,0 КГц
Битовая глубина : 24 бит
Метод сжатия : С потерями
Размер потока : 1,24 Гбайт (15%)
Язык : Russian
Default : Да
Forced : Нет

Меню
00:00:00.000 : ru:00:00:00.000
00:08:50.480 : ru:00:08:50.480
00:13:58.440 : ru:00:13:58.440
00:17:52.760 : ru:00:17:52.760
00:22:04.360 : ru:00:22:04.360
00:30:00.520 : ru:00:30:00.520
00:39:32.680 : ru:00:39:32.680
00:46:36.640 : ru:00:46:36.640
00:52:03.320 : ru:00:52:03.320
00:58:34.640 : ru:00:58:34.640
01:04:37.600 : ru:01:04:37.600
01:10:23.840 : ru:01:10:23.840
01:16:03.880 : ru:01:16:03.880
01:25:24.640 : ru:01:25:24.640
01:32:36.760 : ru:01:32:36.760
01:38:47.480 : ru:01:38:47.480

скриншот  скриншот  скриншот  скриншот  
piratbit.pw



Скачать Матч через торрент http://pic.kartinco.top/images/1/669gie7b3v.png Скачать фильм Матч через торрент бесплантно в хорошем качестве Описание: 1942 год. Николай Раневич, вратарь и звезда киевского «Динамо», теряет самое дорогое — свободу, любимую девушку Анну и ... 10 10 3
Info! Золотая раздача, скачанное не засчитывается.
Торрент: Зарегистрирован [2012-07-05 22:45] · скачан: 56 раз
Статус: √ проверено
Размер: 8.05 GB
Как cкачать? Как скачать Матч через торрент | qTorrent

% Раздел Тема Автор DL S | L
Ultra HD (UHD: 2K, 4K, 8K) — видео сверхвысокой чёткости [ 84.39 GB ] Долгий путь Билли Линна в перерыве футбольного матча / Billy Lynn's Long Halftime Walk [2016 военный UHD Blu-ray EUR 2160p] MVO [] sheker187 Скачать
1 | 0
Ultra HD (UHD: 2K, 4K, 8K) — видео сверхвысокой чёткости [ 71.95 GB ] Долгий путь Билли Линна в перерыве футбольного матча / Billy Lynn's Long Halftime Walk [2016 военный UHD BDRemux 2160p] MVO [ BD EUR] bober100 Скачать
1 | 0
Фильмы 2016 [DVDrip, WEB-DLRip, HDrip] (DUB, MVO) [ 2.7 GB ] Долгий путь Билли Линна в перерыве футбольного матча / Billy Lynn's Long Halftime Walk [2016 военный экранизация BDRip-AVC] MVO [] bober100 Скачать
1 | 0
Фильмы [HD 720p, 1080p] (Хороший звук DUB, MVO) [ 7.95 GB ] Долгий путь Билли Линна в перерыве футбольного матча / Billy Lynn's Long Halftime Walk [2016 военный BDRip 1080p от еnvy / NNNB] MVO | еnvy Скачать
1 | 1
Фильмы 2016 [DVDrip, WEB-DLRip, HDrip] (DUB, MVO) [ 2.18 GB ] Долгий путь Билли Линна в перерыве футбольного матча / Billy Lynn's Long Halftime Walk [2016 военный BDRip] многоголосый [] Twi7ter Скачать
1 | 0
Фильмы 2016 [DVDrip, WEB-DLRip, HDrip] (DUB, MVO) [ 1.46 GB ] Долгий путь Билли Линна в перерыве футбольного матча / Billy Lynn's Long Halftime Walk [2016 военный BDRip] многоголосый [] Twi7ter Скачать
1 | 0
Наши новые фильмы 2012 [ 1.46 GB ] Матч [2012 DVDRip] |лицензия| -=Cherry=- Скачать
1 | 0

28-11-2019 20:33  

Отключить всю рекламу на сайте

    Дорогой пользователь! Огромная просьба, поблагодарите релизера, оцените раздачу и оставьте свои комментарий, если Вы скачали Матч через торрент бесплатно! Внесите свою лепту в развитие PiratBit!
    Комментировать посты могут только пользователи прошедшие не сложную регистрацию
    Показать сообщения:    

    Матч через торрент
    Скачать бесплатно Матч
    Матч скачать торрент
    Матч смотреть онлайн
    Cкачать фильм Матч бесплатно
    Матч скачать торрент в хорошем качестве
    Матч смотреть онлайн бесплатно в хорошем качестве


    Вы не можете начинать темы
    Вы не можете отвечать на сообщения
    Вы не можете редактировать свои сообщения
    Вы не можете удалять свои сообщения
    Вы не можете голосовать в опросах
    Вы не можете прикреплять файлы к сообщениям
    Вы можете скачивать файлы