Мега распродажа FORZA HORIZON 4 ULTIMATE+ВСЕ DLC+ОНЛАЙН всего за 499р. 349 руб. (супер цена). Внимание количество ограничено!!!

iTunes

1+1

iTunes

мы

iTunes

1

1 сезон

Чернобыль

1 сезон

Ральф против интернета

Лицензия

ПШазам

8 сезон

Игра престолов

Лицензия

30
pack

ВАЖНО

!!Акция!!

Alien_RageХит недели

RePack

Resident Evil 21

ИГРА 18+

pack

RePack

Metro:Exodus

!!Акция!!

Alien_Rage

RePack

fifa19

RePack

Assassins Creed: Odyssey

RePack

NEED FOR SPEED™ PAYBACK

3 сезон

9 сезон

Бесстыжие 9 сезон

Все сериалы

все сериалы на PB.wtf

RePack

FAR CRY 5
Ребята, катастрофически не хватает 2730р. для оплаты серверов за ИЮНЬ (всвязи с блокировками трафик упал в 3 раза), 1-2р., выручайте.
  

Вендетта по - корсикански / Les grands moyens (Хьюберт Корнфилд) [ г., комедия, криминал, DVDRip, DUB (лицензия)] piratbit.pw

Вендетта по - корсикански через торрент piratbit.pw

Размер: 1.37 GB | Добавлен: 7 лет назад | Торрент скачан:119 раз
Скачать  

26-06-2012 07:04 Вендетта по - корсикански Скачать торрент  

Вендетта по - корсикански / Les grands moyens
Год выпуска:1978
Страна: Франция
Жанр: комедия, криминал
Перевод: Дублированный
Продолжительность 01:22:22

Режиссер: Хьюберт Корнфилд
Сценарий: Ричард Карон, Хьюберт Корнфилд

Премьера в мире: 18 мая 1978

IMDB: 5.4 (10)
Кинопоиск.RU: 7.979 (213)

В ролях: Элен Дьедонне, Роже Карель, Катрин Рувель, Фернан Сарду, Робер Кастель, Жан-Жак Моро, Жерар Берне

Описание: Корсика. Убийство. Обычай кровной мести (вендетта) обязывает всех мужчин рода мстить до последнего вздоха. Но молодежь плюет на традиции и чувство долга.
Однако за дело чести могут постоять не только «крутые» парни, но и «божьи одуванчики».

Качество: DVDRip
Формат: AVI
Видео кодек: DivX
Аудио кодек: MP3
Видео: 688x400 (1.72:1), 25 fps, DivX Codec 5.x or 6.x ~2266 kbps avg, 0.33 bit/pixel
Аудио#1: 48 kHz, MPEG Layer 3, 2 ch, ~96.00 kbps avg





Полное имя : H:torrentvendetta_po_korsikanski.avi
Формат : AVI
Формат/Информация : Audio Video Interleave
Размер файла : 1,37 Гбайт
Продолжительность : 1 ч. 22 м.
Общий поток : 2373 Кбит/сек
Программа кодирования : VirtualDubMod 1.5.10.2 (build 2540/release)
Библиотека кодирования : VirtualDubMod build 2540/release

Видео
Идентификатор : 0
Формат : MPEG-4 Visual
Параметр BVOP формата : 1
Параметр QPel формата : Нет
Параметр GMC формата : Без точки перехода
Параметр матрицы формата : Default (H.263)
Режим смешивания : Сжатый битовый поток
Идентификатор кодека : DX50
Идентификатор кодека/Подсказка : DivX 5
Продолжительность : 1 ч. 22 м.
Битрейт : 2267 Кбит/сек
Ширина : 688 пикс.
Высота : 400 пикс.
Соотношение сторон : 16:9
Частота кадров : 25,000 кадр/сек
Цветовое пространство : YUV
Подвыборка цветности : 4:2:0
Битовая глубина : 8 бит
Тип развёртки : Прогрессивная
Метод сжатия : С потерями
Бит/(Пиксели*Кадры) : 0.330
Размер потока : 1,30 Гбайт (96%)
Библиотека кодирования : DivX 6.8.3-6.8.4 (UTC 2008-06-07)

Аудио
Идентификатор : 1
Формат : MPEG Audio
Версия формата : Version 1
Профиль формата : Layer 3
Режим : Joint stereo
Расширение режима : Intensity Stereo + MS Stereo
Идентификатор кодека : 55
Идентификатор кодека/Подсказка : MP3
Продолжительность : 1 ч. 22 м.
Вид битрейта : Постоянный
Битрейт : 96,0 Кбит/сек
Каналы : 2 канала
Частота : 48,0 КГц
Метод сжатия : С потерями
Задержка видео : 8 мс.
Размер потока : 56,5 Мбайт (4%)
Выравнивание : Разделение по промежуткам
Продолжительность промежутка : 40 мс. (1,00 видеокадр)
Время предзагрузки промежутка : 500 ms

piratbit.pw



Скачать Вендетта по - корсикански через торрент http://pic.kartinco.top/images/1/dns4jbeke1.jpg Скачать фильм Вендетта по - корсикански через торрент бесплантно в хорошем качестве Описание: Корсика. Убийство. Обычай кровной мести (вендетта) обязывает всех мужчин рода мстить до последнего вздоха. Но молодежь плюет на ... 9.3 10 3
Info! Золотая раздача, скачанное не засчитывается.
Торрент: Зарегистрирован [2012-06-26 07:04] · скачан: 119 раз
Статус: √ проверено
Размер: 1.37 GB
Как cкачать? Как скачать Вендетта по - корсикански через торрент | qTorrent



Последний раз редактировалось: jump88 (2015-01-04 08:37), всего редактировалось 1 раз


>> Регистрируемся здесь <<






Отзывы и комментарии о схеме читаем и пишем здесь: ---> Отзывы и комментарии о схеме

Новые благодарочки в телеграм довольных пользователей:
скриншот   скриншот   скриншот   скриншот   скриншот

26-06-2012 07:18 Вендетта по - корсикански Скачать торрент  

КЛАСС!!!!!!В ДЕТСТВЕ РАЗ ПЯТЬ В КИНОТЕАТР БЕГАЛ!! sarcastic piratbit.pw



09-08-2013 14:06 Вендетта по - корсикански Скачать торрент  

Спасибо за фильм из детстваpiratbit.pw



21-05-2014 22:01 Вендетта по - корсикански Скачать торрент  

dalton3 писал(а):

КЛАСС!!!!!!В ДЕТСТВЕ РАЗ ПЯТЬ В КИНОТЕАТР БЕГАЛ!! sarcastic

Цитата:

Вендетта по - корсикански / Les grands moyens (Хьюберт Корнфилд) [ г., комедия, криминал, DVDRip, DUB (лицензия)]

кино не смотрел-но книга superpiratbit.pw



28-02-2016 22:06 Вендетта по - корсикански Скачать торрент  

Отличный фильм.piratbit.pw



    Дорогой пользователь! Огромная просьба, поблагодарите релизера, оцените раздачу и оставьте свои комментарий, если Вы скачали Вендетта по - корсикански через торрент бесплатно! Внесите свою лепту в развитие PiratBit!
    Комментировать посты могут только пользователи прошедшие не сложную регистрацию
    Показать сообщения:    

    Вендетта по - корсикански через торрент
    Скачать бесплатно Вендетта по - корсикански
    Вендетта по - корсикански скачать торрент
    Вендетта по - корсикански смотреть онлайн
    Cкачать фильм Вендетта по - корсикански бесплатно
    Вендетта по - корсикански скачать торрент в хорошем качестве
    Вендетта по - корсикански смотреть онлайн бесплатно в хорошем качестве


    Вы не можете начинать темы
    Вы не можете отвечать на сообщения
    Вы не можете редактировать свои сообщения
    Вы не можете удалять свои сообщения
    Вы не можете голосовать в опросах
    Вы не можете прикреплять файлы к сообщениям
    Вы можете скачивать файлы