Marvel's Avengers Deluxe Edition (супер цена) 159р. Внимание количество ограничено!!!

2 сезон

iTunes

iTunes

1

iTunes

iTunes

iTunes

WEBRip

iTunes

30
pack

Новость дня

ВАЖНО

!!Акция!!

Alien_RageХит недели

RePack

Horizon Zero Dawn

ИГРА 18+

pack

RePack

jed

!!Акция!!

Alien_Rage

RePack

fifa19

RePack

Assassins Creed: Odyssey

RePack

NEED FOR SPEED™ PAYBACK

4 сезон

9 сезон

Бесстыжие 9 сезон

Все сериалы

все сериалы на PB.wtf

RePack

FAR CRY 5
  

Три с половиной дня из жизни Ивана Семенова, второклассника и второгодника (Константин Березовский) [1966 г., детский, комедия, семейный, DVDRip, Оригинал] piratbit.pw

Три с половиной дня из жизни Ивана Семенова, второклассника и второгодника через торрент piratbit.pw

Размер: 1.45 GB | Добавлен: 8 лет 3 мес. назад | Торрент скачан:12 раз
Скачать  

20-06-2012 14:12 Три с половиной дня из жизни Ивана Семенова, второклассника и второгодника Скачать торрент  

Три с половиной дня из жизни Ивана Семенова, второклассника и второгодника

Год выпуска: 1966
Страна: СССР
Жанр: детский, комедия, семейный
Продолжительность: 01:27:08
Перевод: Оригинал

Режиссер: Константин Березовский
Сценарий: Лев Давыдычев

КиноПоиск : 7.459 (61)

В ролях: Владимир Воробей, Елена Калашникова, Борис Ихлов, Маргарита Уткина, Саша Бабушкин, Слава Митянин, Лидия Мосолова

Описание: "Идея снять фильм про Ивана Семенова на Пермской студии телевидения возникла сразу же после выхода в свет повести Льва Давыдычева. Однако у пермских телевизионщиков в то время опыта съемок полнометражного кино не было. Впрочем, как и у режиссера Константина Березовского, приехавшего работать на Пермскую студию телевидения из Уфы. Но прочитав сценарий, а затем и саму книгу, Березовский согласился работать над фильмом, поставив единственное условие - дать ему год на подготовку юных актеров. Каждую неделю на студии телевидения ребят обучали актерскому мастерств, а полученные навыки закрепляли с помощью телевизионных спектаклей. Большинство ребят позже сыграли в "Иване Семенове". На экраны первый пермский полнометражный фильм вышел в 1966 году. Тогда же он стал лауреатом на Первом Всесоюзном фестивале телевизионных фильмов в Киеве. Картина многим казалась чудом, в том числе и с экономической точки зрения: на ее создание ушло 33 тысячи рублей, что было в 7 раз дешевле фильмов, созданных на столичных студиях. Сколько же "Иван Семенов" заработал в прокате - а его смотрели и за рубежом - одному государству известно. В 2003 году в сквере театра кукол города Пермь был установлен памятник Ивану Семенову, второкласснику и второгоднику"

Качество: DVDRip
Формат: AVI
Видео кодек: DivX
Аудио кодек: AC3
Видео: 2109 Кбит/сек, 640 пикселей Х 480 пикселей, 25,000 кадров/сек, Бит/Пиксели : 0.275
Аудио#1: 256 Кбит/сек, 2 канала, 44,1 КГц
Формат : AVI
Формат/Информация : Audio Video Interleave
Размер файла : 1,45 Гбайт
Продолжительность : 1 ч. 27 м.
Общий поток : 2378 Кбит/сек
Библиотека кодирования : MPlayer

Видео
Идентификатор : 0
Формат : MPEG-4 Visual
Профиль формата : Simple@L1
Параметр BVOP формата : Нет
Параметр QPel формата : Нет
Параметр GMC формата : Без точки перехода
Параметр матрицы формата : Default (H.263)
Идентификатор кодека : DX50
Идентификатор кодека/Подсказка : DivX 5
Продолжительность : 1 ч. 27 м.
Битрейт : 2109 Кбит/сек
Ширина : 640 пикселей
Высота : 480 пикселей
Соотношение сторон : 4:3
Частота кадров : 25,000 кадров/сек
Цветовое пространство : YUV
Субдискретизация насыщенности : 4:2:0
Битовая глубина : 8 бит
Тип развёртки : Чересстрочная
Порядок развёртки : Верхнее поле первое
Метод сжатия : С потерями
Бит/(Пиксели*Кадры) : 0.275
Размер потока : 1,28 Гбайт (89%)
Библиотека кодирования : Lavc51.44.0

Аудио
Идентификатор : 1
Формат : MPEG Audio
Версия формата : Version 1
Профиль формата : Layer 3
Режим : Joint stereo
Расширение режима : MS Stereo
Идентификатор кодека : 55
Идентификатор кодека/Подсказка : MP3
Продолжительность : 1 ч. 27 м.
Вид битрейта : Постоянный
Битрейт : 256 Кбит/сек
Каналы : 2 канала
Частота : 44,1 КГц
Метод сжатия : С потерями
Размер потока : 160 Мбайт (11%)
Выравнивание : Соединение по промежуткам
Продолжительность промежутка : 26 мс. (0,65 видеокадр)
Время предзагрузки промежутка : 809 мс.
Библиотека кодирования : LAME3.97
piratbit.pw



Скачать Три с половиной дня из жизни Ивана Семенова, второклассника и второгодника через торрент http://pic.kartinco.top/images/1/vipnstzyvl.jpg Скачать фильм Три с половиной дня из жизни Ивана Семенова, второклассника и второгодника через торрент бесплантно в хорошем качестве Описание: "Идея снять фильм про Ивана Семенова на Пермской студии телевидения возникла сразу же после выхода в свет повести Льва ... 9.3 10 3
Info! Золотая раздача, скачанное не засчитывается.
Торрент: Зарегистрирован [2012-06-20 14:12] · скачан: 12 раз
Статус: √ проверено
Размер: 1.45 GB
Как cкачать? Как скачать Три с половиной дня из жизни Ивана Семенова, второклассника и второгодника через торрент | qTorrent

28-11-2019 20:33  

Отключить всю рекламу на сайте

07-02-2013 13:30 Три с половиной дня из жизни Ивана Семенова, второклассника и второгодника Скачать торрент  

Скорости!Плиззззз!!!piratbit.pw



    Дорогой пользователь! Огромная просьба, поблагодарите релизера, оцените раздачу и оставьте свои комментарий, если Вы скачали Три с половиной дня из жизни Ивана Семенова, второклассника и второгодника через торрент бесплатно! Внесите свою лепту в развитие PiratBit!
    Комментировать посты могут только пользователи прошедшие не сложную регистрацию
    Показать сообщения:    

    Три с половиной дня из жизни Ивана Семенова, второклассника и второгодника через торрент
    Скачать бесплатно Три с половиной дня из жизни Ивана Семенова, второклассника и второгодника
    Три с половиной дня из жизни Ивана Семенова, второклассника и второгодника скачать торрент
    Три с половиной дня из жизни Ивана Семенова, второклассника и второгодника смотреть онлайн
    Cкачать фильм Три с половиной дня из жизни Ивана Семенова, второклассника и второгодника бесплатно
    Три с половиной дня из жизни Ивана Семенова, второклассника и второгодника скачать торрент в хорошем качестве
    Три с половиной дня из жизни Ивана Семенова, второклассника и второгодника смотреть онлайн бесплатно в хорошем качестве


    Вы не можете начинать темы
    Вы не можете отвечать на сообщения
    Вы не можете редактировать свои сообщения
    Вы не можете удалять свои сообщения
    Вы не можете голосовать в опросах
    Вы не можете прикреплять файлы к сообщениям
    Вы можете скачивать файлы