Marvel's Avengers Deluxe Edition (супер цена) 159р. Внимание количество ограничено!!!

2 сезон

iTunes

iTunes

1

iTunes

iTunes

iTunes

WEBRip

iTunes

30
pack

Новость дня

ВАЖНО

!!Акция!!

Alien_RageХит недели

RePack

Horizon Zero Dawn

ИГРА 18+

pack

RePack

jed

!!Акция!!

Alien_Rage

RePack

fifa19

RePack

Assassins Creed: Odyssey

RePack

NEED FOR SPEED™ PAYBACK

4 сезон

9 сезон

Бесстыжие 9 сезон

Все сериалы

все сериалы на PB.wtf

RePack

FAR CRY 5
  

Василий Буслаев (Геннадий Васильев) [1984 г., драма, история, DVDRip, Оригинал] piratbit.pw

Василий Буслаев через торрент piratbit.pw

Размер: 1.37 GB | Добавлен: 8 лет 3 мес. назад | Торрент скачан:31 раз
Скачать  

20-06-2012 11:20 Василий Буслаев Скачать торрент  

Василий Буслаев

Год выпуска: 1984
Страна: СССР
Жанр: драма, история
Продолжительность: 01:16:32
Перевод: Оригинал

Режиссер: Геннадий Васильев
Сценарий: Сергей Наровчатов, Борис Шустров, Геннадий Васильев

Премьера в мире: 3 января 1983

КиноПоиск : 7.483 (139)

В ролях: Дмитрий Золотухин, Людмила Хитяева, Ирина Алферова, Дмитрий Матвеев, Алексей Зайцев, Валерий Носик, Наталья Крачковская, Михаил Кокшенов, Матлюба Алимова, Николай Погодин, Дмитрий Орловский, Андрей Мартынов, Михаил Розанов, Игорь Бочкин

Описание: Фильм-сказка о былинном русском богатыре Василии Буслаеве — сыне Новгородского посадника. Жил он как хотел, сам по себе: не верил ни в сон, ни в чех, ни в змеиный шип, ни в вороний грай. Сила и мощь Василия, сына Новгородского посадника (губернатора), водившего дружбу с простым народом, приводила в бешенство и нагоняла страх на разжиревших купцов новгородских. Дана была ему Богом сила Великая, а кому много дадено, с того много спросится.

Грянула беда: напал на святую Русь народ немилостивый, лютый, младости детей и немощи старцев не щадящий, и стал Василий — русский богатырь, щитом и мечом родимой земле, господину Великому Новгороду… Когда купцы узнали, что юноша собирается в поход во имя спасения своей земли от ворога, радости их не было границ. Разве можно сломить ту силу великую! Но Василий кладет конец всяческим козням и доводит свою экспедицию до победного конца. Он возвращается домой героем и еще привозит с собой зазнобу.

Доп. информация:
релиз на DVD 19 ноября 2009, «Новый Диск»


Качество: DVDRip
Формат: AVI
Видео кодек: XviD
Аудио кодек: AC3
Видео: 2361 Кбит/сек, 704 х 336, 25,000 кадров/сек, Бит/Пиксели : 0.399
Аудио#1: 192 Кбит/сек, 2 канала, 48,0 КГц

Формат : AVI
Формат/Информация : Audio Video Interleave
Размер файла : 1,37 Гбайт
Продолжительность : 1 ч. 16 м.
Общий поток : 2559 Кбит/сек
Программа кодирования : VirtualDubMod 1.5.4.1 (build 2178/release)
Библиотека кодирования : VirtualDubMod build 2178/release

Видео
Идентификатор : 0
Формат : MPEG-4 Visual
Профиль формата : Advanced Simple@L5
Параметр BVOP формата : 1
Параметр QPel формата : Нет
Параметр GMC формата : Без точки перехода
Параметр матрицы формата : Выборочная
Идентификатор кодека : XVID
Идентификатор кодека/Подсказка : XviD
Продолжительность : 1 ч. 16 м.
Битрейт : 2361 Кбит/сек
Ширина : 704 пикселя
Высота : 336 пикселей
Соотношение сторон : 2,095
Частота кадров : 25,000 кадров/сек
Цветовое пространство : YUV
Субдискретизация насыщенности : 4:2:0
Битовая глубина : 8 бит
Тип развёртки : Прогрессивная
Метод сжатия : С потерями
Бит/(Пиксели*Кадры) : 0.399
Размер потока : 1,26 Гбайт (92%)
Библиотека кодирования : XviD 63

Аудио
Идентификатор : 1
Формат : AC-3
Формат/Информация : Audio Coding 3
Профиль формата : Dolby Digital
Расширение режима : CM (complete main)
Параметр Endianness формата : Big
Идентификатор кодека : 2000
Продолжительность : 1 ч. 16 м.
Вид битрейта : Постоянный
Битрейт : 192 Кбит/сек
Каналы : 2 канала
Расположение каналов : Front: L R
Частота : 48,0 КГц
Битовая глубина : 16 бит
Метод сжатия : С потерями
Задержка видео : 600 мс.
Размер потока : 105 Мбайт (8%)
Выравнивание : Разделение по промежуткам
Продолжительность промежутка : 96 мс. (2,40 видеокадра)
Время предзагрузки промежутка : 96 мс.
Язык : Russian

piratbit.pw



Скачать Василий Буслаев через торрент http://pic.kartinco.top/images/1/7bjn7uy539.jpg Скачать фильм Василий Буслаев через торрент бесплантно в хорошем качестве Описание: Фильм-сказка о былинном русском богатыре Василии Буслаеве — сыне Новгородского посадника. Жил он как хотел, сам по себе: не верил ... 9.8 10 6
Info! Золотая раздача, скачанное не засчитывается.
Торрент: Зарегистрирован [2012-06-20 11:20] · скачан: 31 раз
Статус: √ проверено
Размер: 1.37 GB
Как cкачать? Как скачать Василий Буслаев через торрент | qTorrent

28-11-2019 20:33  

Отключить всю рекламу на сайте

20-06-2012 12:32 Василий Буслаев Скачать торрент  

спасибо!piratbit.pw



    Дорогой пользователь! Огромная просьба, поблагодарите релизера, оцените раздачу и оставьте свои комментарий, если Вы скачали Василий Буслаев через торрент бесплатно! Внесите свою лепту в развитие PiratBit!
    Комментировать посты могут только пользователи прошедшие не сложную регистрацию
    Показать сообщения:    

    Василий Буслаев через торрент
    Скачать бесплатно Василий Буслаев
    Василий Буслаев скачать торрент
    Василий Буслаев смотреть онлайн
    Cкачать фильм Василий Буслаев бесплатно
    Василий Буслаев скачать торрент в хорошем качестве
    Василий Буслаев смотреть онлайн бесплатно в хорошем качестве


    Вы не можете начинать темы
    Вы не можете отвечать на сообщения
    Вы не можете редактировать свои сообщения
    Вы не можете удалять свои сообщения
    Вы не можете голосовать в опросах
    Вы не можете прикреплять файлы к сообщениям
    Вы можете скачивать файлы