Marvel's Avengers Deluxe Edition (супер цена) 159р. Внимание количество ограничено!!!

2 сезон

iTunes

iTunes

1

iTunes

iTunes

iTunes

WEBRip

iTunes

30
pack

Новость дня

ВАЖНО

!!Акция!!

Alien_RageХит недели

RePack

Horizon Zero Dawn

ИГРА 18+

pack

RePack

jed

!!Акция!!

Alien_Rage

RePack

fifa19

RePack

Assassins Creed: Odyssey

RePack

NEED FOR SPEED™ PAYBACK

4 сезон

9 сезон

Бесстыжие 9 сезон

Все сериалы

все сериалы на PB.wtf

RePack

FAR CRY 5
  

Город мастеров (Владимир Бычков) [1965 г., фэнтези, приключения, семейный, история, DVDRip] piratbit.pw

Город мастеров через торрент piratbit.pw

Размер: 1.37 GB | Добавлен: 8 лет 3 мес. назад | Торрент скачан:42 раза
Скачать  

20-06-2012 06:31 Город мастеров Скачать торрент  

Город мастеров

Год выпуска: 1965
Страна: СССР
Жанр: фэнтези, приключения, семейный, история
Продолжительность: 01:19:14
Перевод: Не требуется

Режиссер: Владимир Бычков
Продюссер: А. Жук

Премьера в мире: 24 января 1966

IMDB 7.10 (68)


В ролях: Георгий Лапето, Марианна Вертинская, Лев Лемке, Елизавета Уварова, Савелий Крамаров, Павел Шпрингфельд, Роман Филиппов, Василий Бычков, Зиновий Гердт, Игорь Ясулович, Игорь Ясулович

Описание: Однажды город веселых тружеников захватили чужеземцы и поработили его мирных жителей. Но это несчастье было недолгим. Дух свободы гулял по городу и пробуждал в угнетенных гордость. Главным вольнодумцем был городской дворник. Горбатый балагур меньше всего внушал опасений у городских властей. Когда труженики были готовы сражаться за свободу, им на помощь пришли лесные партизаны, посредником у которых был горбун.

Качество: DVDRip
Формат: AVI
Видео кодек: DivX
Аудио кодек: AC3
Видео: 688x512 (1.34:1), 29.970 fps, DivX Codec 6.8.3 ~2012 kbps avg, 0.19 bit/pixel
Аудио#1: Русский: 48 kHz, AC3 Dolby Digital, 3/2 (L,C,R,l,r) + LFE ch, ~448 kbps



Общее
Полное имя : F:\Закачки\Gorod.Masterov.1965.DVDRip.avi
Формат : AVI
Формат/Информация : Audio Video Interleave
Размер файла : 1,37 Гбайт
Продолжительность : 1 ч. 19 м.
Общий поток : 2472 Кбит/сек
Программа кодирования : VirtualDubModRus 1.5.10.2 (build 2542/release)
Библиотека кодирования : VirtualDubMod build 2542/release

Видео
Идентификатор : 0
Формат : MPEG-4 Visual
Параметр BVOP формата : 2
Параметр QPel формата : Нет
Параметр GMC формата : Без точки перехода
Параметр матрицы формата : Default (H.263)
Режим смешивания : Сжатый битовый поток
Идентификатор кодека : DX50
Идентификатор кодека/Подсказка : DivX 5
Продолжительность : 1 ч. 19 м.
Битрейт : 2012 Кбит/сек
Ширина : 688 пикселей
Высота : 512 пикселей
Соотношение сторон : 4:3
Частота кадров : 29,970 кадров/сек
Цветовое пространство : YUV
Субдискретизация насыщенности : 4:2:0
Битовая глубина : 8 бит
Тип развёртки : Прогрессивная
Метод сжатия : С потерями
Бит/(Пиксели*Кадры) : 0.191
Размер потока : 1,11 Гбайт (81%)
Библиотека кодирования : DivX 6.8.3-6.8.4 (UTC 2008-06-07)

Аудио
Идентификатор : 1
Формат : AC-3
Формат/Информация : Audio Coding 3
Расширение режима : CM (complete main)
Параметр Endianness формата : Big
Идентификатор кодека : 2000
Продолжительность : 1 ч. 19 м.
Вид битрейта : Постоянный
Битрейт : 448 Кбит/сек
Каналы : 6 каналов
Расположение каналов : Front: L C R, Side: L R, LFE
Частота : 48,0 КГц
Битовая глубина : 16 бит
Метод сжатия : С потерями
Размер потока : 254 Мбайт (18%)
Выравнивание : Соединение по промежуткам
Продолжительность промежутка : 33 мс. (1,00 видеокадр)
Время предзагрузки промежутка : 512 мс.

piratbit.pw



Скачать Город мастеров через торрент http://i39.fastpic.ru/big/2012/0620/08/a3c781538ca7863f44d60fd310a6a308.jpg Скачать фильм Город мастеров через торрент бесплантно в хорошем качестве Описание: Однажды город веселых тружеников захватили чужеземцы и поработили его мирных жителей. Но это несчастье было недолгим. Дух свободы ... 10 10 4
Info! Золотая раздача, скачанное не засчитывается.
Торрент: Зарегистрирован [2012-06-20 06:31] · скачан: 42 раз
Статус: √ проверено
Размер: 1.37 GB
Как cкачать? Как скачать Город мастеров через торрент | qTorrent

28-11-2019 20:33  

Отключить всю рекламу на сайте

    Дорогой пользователь! Огромная просьба, поблагодарите релизера, оцените раздачу и оставьте свои комментарий, если Вы скачали Город мастеров через торрент бесплатно! Внесите свою лепту в развитие PiratBit!
    Комментировать посты могут только пользователи прошедшие не сложную регистрацию
    Показать сообщения:    

    Город мастеров через торрент
    Скачать бесплатно Город мастеров
    Город мастеров скачать торрент
    Город мастеров смотреть онлайн
    Cкачать фильм Город мастеров бесплатно
    Город мастеров скачать торрент в хорошем качестве
    Город мастеров смотреть онлайн бесплатно в хорошем качестве


    Вы не можете начинать темы
    Вы не можете отвечать на сообщения
    Вы не можете редактировать свои сообщения
    Вы не можете удалять свои сообщения
    Вы не можете голосовать в опросах
    Вы не можете прикреплять файлы к сообщениям
    Вы можете скачивать файлы