Marvel's Avengers Deluxe Edition (супер цена) 159р. Внимание количество ограничено!!!

2 сезон

iTunes

iTunes

1

iTunes

iTunes

iTunes

WEBRip

iTunes

30
pack

Новость дня

ВАЖНО

!!Акция!!

Alien_RageХит недели

RePack

Horizon Zero Dawn

ИГРА 18+

pack

RePack

jed

!!Акция!!

Alien_Rage

RePack

fifa19

RePack

Assassins Creed: Odyssey

RePack

NEED FOR SPEED™ PAYBACK

4 сезон

9 сезон

Бесстыжие 9 сезон

Все сериалы

все сериалы на PB.wtf

RePack

FAR CRY 5
  

Тайна горного озера (Александр Роу, Яков Кочарян) [1954 г., приключения, семейный, DVDRip] piratbit.pw

Тайна горного озера через торрент piratbit.pw

Размер: 704 MB | Добавлен: 8 лет 2 мес. назад | Торрент скачан:7 раз
Скачать  

20-06-2012 05:35 Тайна горного озера Скачать торрент  

Тайна горного озера

Год выпуска: 1954
Страна: СССР
Жанр: приключения, семейный
Продолжительность: 01:06:24
Перевод: Не требуется

Режиссер: Александр Роу, Яков Кочарян
Продюссер: В. Бадалян

Премьера в мире: 19 ноября 1954

IMDB 4.70 (10)


В ролях: Гурген Габриелян, Е. Харутюнян, В. Данилян, Г. Ашугхян, Татул Дилакян, Арус Асрян, Ваган Багратуни, Г. Мушегхян, Лилия Оганесян, Борис Керобян

Описание: Полям и садам большого селения, находящегося в горах Армении, не хватает воды. Между тем в древние времена, согласно преданиям, именно здесь протекала река, воды которой злое чудовище Дэв упрятал от непокорных людей. Но однажды в селение приехали геологи. Камо, Никита и Грикор решают помочь экспедиции и отправляются в поход. Самовольное путешествие ребят едва не закончилось гибелью Камо.
Тем временем изучающий геологию Сето находит в горах осколок старинной плиты с клинописью и узнает, что река, протекавшая в этих местах, исчезла после землетрясения. Пионеры собирают отряд и отправляются в горы вслед за геологами, чтобы сообщить им о важном открытии. Неожиданно начавшаяся гроза вынуждает ребят укрыться в пещере, выход из которой из-за сильного обвала вскоре заваливает. Блуждая в таинственных подземных лабиринтах, ребята обнаруживают исчезнувшую реку. Через некоторое время друзья их найдут, геологи взорвут скалу и свободные воды старой реки хлынут на выжженные солнцем поля.

Качество: DVDRip
Формат: AVI
Видео кодек: XviD
Аудио кодек: MP3
Видео: 704x528 (1.33:1), 25 fps, XviD MPEG-4 ~1275 kbps avg, 0.14 bit/pixel
Аудио#1: Русский: 48 kHz, MPEG Layer 3, 2 ch, ~192.00 kbps avg
Александр Роу родился 11 (24) февраля 1906 года в городе Юрьевец Костромской губернии (ныне — Ивановская область). Его отцом был ирландец Артур Говард Роу (Rowe) — ирландский инженер, который в 1905 году приехал по контракту в Россию налаживать мукомольное производство. Женился на гречанке. Работал в Юрьевце. В 1906 году у них родился сын Александр, будущий известный кинорежиссёр. В 1914 году Артур Роу вернулся на родину, оставив в России семью.
С 10 лет Александру пришлось работать для поддержки больной матери — он торговал мелкой кустарной галантереей. Он окончил семилетнюю школу и поступил в промышленно-экономический техникум. С 1921 работал в агиттеатре «Синяя блуза». Из техникума перевёлся в киношколу имени Б. Чайковского, которую окончил в 1930 году, затем учился в Драматическом техникуме им. М. Н. Ермоловой (окончил в 1934 году).
С 1930 года Александр Роу работал на киностудии «Межрабпомфильм» ассистентом у Якова Протазанова на съёмках фильмов «Марионетки» (1934) и «Бесприданница» (1937) и у других режиссёров.
С 1937 года — режиссёр киностудии «Союздетфильм» (затем — киностудии имени М. Горького). Первая самостоятельная режиссёрская работа — фильм-сказка «По щучьему веленью» (1938). Именно сказочное кино для всех возрастов стало основной темой его творчества.




Общее
Полное имя : F:\Закачки\Tayna.Gornogo.Ozera.1954.DVDRip.avi
Формат : AVI
Формат/Информация : Audio Video Interleave
Размер файла : 704 Мбайт
Продолжительность : 1 ч. 6 м.
Общий поток : 1481 Кбит/сек
Программа кодирования : Lavf52.39.1

Видео
Идентификатор : 0
Формат : xvid
Идентификатор кодека : xvid
Продолжительность : 1 ч. 6 м.
Битрейт : 1276 Кбит/сек
Ширина : 704 пикселя
Высота : 528 пикселей
Соотношение сторон : 4:3
Частота кадров : 25,000 кадров/сек
Бит/(Пиксели*Кадры) : 0.137
Размер потока : 606 Мбайт (86%)

Аудио
Идентификатор : 1
Формат : MPEG Audio
Версия формата : Version 1
Профиль формата : Layer 3
Режим : Joint stereo
Расширение режима : MS Stereo
Идентификатор кодека : 55
Идентификатор кодека/Подсказка : MP3
Продолжительность : 1 ч. 6 м.
Вид битрейта : Постоянный
Битрейт : 192 Кбит/сек
Каналы : 2 канала
Частота : 48,0 КГц
Метод сжатия : С потерями
Размер потока : 91,2 Мбайт (13%)
Выравнивание : Соединение по промежуткам
Продолжительность промежутка : 24 мс. (0,60 видеокадр)
Время предзагрузки промежутка : 24 мс.
Библиотека кодирования : LAME3.96.1

piratbit.pw



Скачать Тайна горного озера через торрент http://i39.fastpic.ru/big/2012/0618/33/72c757820e628d9dbcdf4eb9bbfea433.jpg Скачать фильм Тайна горного озера через торрент бесплантно в хорошем качестве Описание: Полям и садам большого селения, находящегося в горах Армении, не хватает воды. Между тем в древние времена, согласно преданиям, ... 10 10 1
Info! Золотая раздача, скачанное не засчитывается.
Торрент: Зарегистрирован [2012-06-20 05:35] · скачан: 7 раз
Статус: √ проверено
Размер: 704 MB
Как cкачать? Как скачать Тайна горного озера через торрент | qTorrent

% Раздел Тема Автор DL S | L
Кино СССР [ 744 MB ] Тайна горного озера [1954 СССР DVDRip-AVC от AVP Studio] AVP Studio Скачать
1 | 0
Кино СССР [ 744 MB ] Тайна горного озера [1954 СССР DVDRip от AVP Studio] AVP Studio Скачать
1 | 0

28-11-2019 20:33  

Отключить всю рекламу на сайте

    Дорогой пользователь! Огромная просьба, поблагодарите релизера, оцените раздачу и оставьте свои комментарий, если Вы скачали Тайна горного озера через торрент бесплатно! Внесите свою лепту в развитие PiratBit!
    Комментировать посты могут только пользователи прошедшие не сложную регистрацию
    Показать сообщения:    

    Тайна горного озера через торрент
    Скачать бесплатно Тайна горного озера
    Тайна горного озера скачать торрент
    Тайна горного озера смотреть онлайн
    Cкачать фильм Тайна горного озера бесплатно
    Тайна горного озера скачать торрент в хорошем качестве
    Тайна горного озера смотреть онлайн бесплатно в хорошем качестве


    Вы не можете начинать темы
    Вы не можете отвечать на сообщения
    Вы не можете редактировать свои сообщения
    Вы не можете удалять свои сообщения
    Вы не можете голосовать в опросах
    Вы не можете прикреплять файлы к сообщениям
    Вы можете скачивать файлы