Marvel's Avengers Deluxe Edition (супер цена) 159р. Внимание количество ограничено!!!

2 сезон

iTunes

iTunes

1

iTunes

iTunes

iTunes

WEBRip

iTunes

30
pack

Новость дня

ВАЖНО

!!Акция!!

Alien_RageХит недели

RePack

Horizon Zero Dawn

ИГРА 18+

pack

RePack

jed

!!Акция!!

Alien_Rage

RePack

fifa19

RePack

Assassins Creed: Odyssey

RePack

NEED FOR SPEED™ PAYBACK

4 сезон

9 сезон

Бесстыжие 9 сезон

Все сериалы

все сериалы на PB.wtf

RePack

FAR CRY 5
  

Там, на неведомых дорожках.. (Михаил Юзовский) [1982 г., фэнтези, семейный, DVDRip, Оригинал] piratbit.pw

Там, на неведомых дорожках.. через торрент piratbit.pw

Размер: 1.37 GB | Добавлен: 8 лет 2 мес. назад | Торрент скачан:31 раз
Скачать  

19-06-2012 16:56 Там, на неведомых дорожках.. Скачать торрент  

Там, на неведомых дорожках...

Год выпуска: 1982
Страна: СССР
Жанр: фэнтези, семейный
Продолжительность: 01:06:24
Перевод: Оригинал

Режиссер: Михаил Юзовский
Сценарий: Алла Ахундова, Эдуард Успенский

Премьера в мире: 28 октября 1983

IMDb: 7.10 (55)
КиноПоиск : 8.035 (855)


В ролях: Виктор Андриенко, Роман Монастырский, Татьяна Пельтцер, Леонид Харитонов, Анастасия Зуева, Александр Филиппенко, Анатолий Кузнецов, Наталья Крачковская, Георгий Мартиросян, Олег Анофриев, Леонид Каневский, Татьяна Аксюта, Александр Пятков

Описание: Школьник Митя, приехав на каникулы в деревню, попадает в волшебную страну, где вместе с героями любимых книжек вступает в борьбу со всеми сказочными злодеями: Кащеем Бессмертным, Соловьем-Разбойником. И даже Лихо Одноглазое удалось одолеть смельчакам

Доп. информация:
релиз на DVD 19 ноября 2009, «Новый Диск»

Качество: DVDRip
Формат: AVI
Видео кодек: XviD
Аудио кодек: AC3
Видео: 2493 Кбит/сек, 720 х 544, 25,000 кадров/сек, Бит/Пиксели : 0.255
Аудио#1: 448 Кбит/сек, 6 каналов, 48,0 КГц
Формат : AVI
Формат/Информация : Audio Video Interleave
Размер файла : 1,37 Гбайт
Продолжительность : 1 ч. 6 м.
Общий поток : 2952 Кбит/сек

Видео
Идентификатор : 0
Формат : MPEG-4 Visual
Профиль формата : Simple@L3
Параметр BVOP формата : Нет
Параметр QPel формата : Нет
Параметр GMC формата : Без точки перехода
Параметр матрицы формата : Default (H.263)
Идентификатор кодека : XVID
Идентификатор кодека/Подсказка : XviD
Продолжительность : 1 ч. 6 м.
Битрейт : 2493 Кбит/сек
Ширина : 720 пикселей
Высота : 544 пикселя
Соотношение сторон : 4:3
Частота кадров : 25,000 кадров/сек
Цветовое пространство : YUV
Субдискретизация насыщенности : 4:2:0
Битовая глубина : 8 бит
Тип развёртки : Прогрессивная
Метод сжатия : С потерями
Бит/(Пиксели*Кадры) : 0.255
Размер потока : 1,16 Гбайт (84%)
Библиотека кодирования : XviD 1.2.1 (UTC 2008-12-04)

Аудио
Идентификатор : 1
Формат : AC-3
Формат/Информация : Audio Coding 3
Расширение режима : CM (complete main)
Параметр Endianness формата : Big
Идентификатор кодека : 2000
Продолжительность : 1 ч. 6 м.
Вид битрейта : Постоянный
Битрейт : 448 Кбит/сек
Каналы : 6 каналов
Расположение каналов : Front: L C R, Side: L R, LFE
Частота : 48,0 КГц
Битовая глубина : 16 бит
Метод сжатия : С потерями
Размер потока : 213 Мбайт (15%)
Выравнивание : Соединение по промежуткам
Продолжительность промежутка : 32 мс. (0,80 видеокадр)

piratbit.pw



Скачать Там, на неведомых дорожках.. через торрент http://pic.kartinco.top/images/1/41ztpdqdjy.jpg Скачать фильм Там, на неведомых дорожках.. через торрент бесплантно в хорошем качестве Описание: Школьник Митя, приехав на каникулы в деревню, попадает в волшебную страну, где вместе с героями любимых книжек вступает в борьбу ... 8.3 10 4
Info! Золотая раздача, скачанное не засчитывается.
Торрент: Зарегистрирован [2012-06-19 16:56] · скачан: 31 раз
Статус: √ проверено
Размер: 1.37 GB
Как cкачать? Как скачать Там, на неведомых дорожках.. через торрент | qTorrent

28-11-2019 20:33  

Отключить всю рекламу на сайте

19-06-2012 19:15 Там, на неведомых дорожках.. Скачать торрент  

Теперь старая добрая русская СКАЗКА назыается трэндовым"фэнтэзи"?)))))эххххх-смесь английского с нижегородским.....piratbit.pw



    Дорогой пользователь! Огромная просьба, поблагодарите релизера, оцените раздачу и оставьте свои комментарий, если Вы скачали Там, на неведомых дорожках.. через торрент бесплатно! Внесите свою лепту в развитие PiratBit!
    Комментировать посты могут только пользователи прошедшие не сложную регистрацию
    Показать сообщения:    

    Там, на неведомых дорожках.. через торрент
    Скачать бесплатно Там, на неведомых дорожках..
    Там, на неведомых дорожках.. скачать торрент
    Там, на неведомых дорожках.. смотреть онлайн
    Cкачать фильм Там, на неведомых дорожках.. бесплатно
    Там, на неведомых дорожках.. скачать торрент в хорошем качестве
    Там, на неведомых дорожках.. смотреть онлайн бесплатно в хорошем качестве


    Вы не можете начинать темы
    Вы не можете отвечать на сообщения
    Вы не можете редактировать свои сообщения
    Вы не можете удалять свои сообщения
    Вы не можете голосовать в опросах
    Вы не можете прикреплять файлы к сообщениям
    Вы можете скачивать файлы