Marvel's Avengers Deluxe Edition (супер цена) 159р. Внимание количество ограничено!!!

2 сезон

iTunes

iTunes

1

iTunes

iTunes

iTunes

WEBRip

iTunes

30
pack

Новость дня

ВАЖНО

!!Акция!!

Alien_RageХит недели

RePack

Horizon Zero Dawn

ИГРА 18+

pack

RePack

jed

!!Акция!!

Alien_Rage

RePack

fifa19

RePack

Assassins Creed: Odyssey

RePack

NEED FOR SPEED™ PAYBACK

4 сезон

9 сезон

Бесстыжие 9 сезон

Все сериалы

все сериалы на PB.wtf

RePack

FAR CRY 5
  

Приключения маленького папы (Дмитрий Крупко) [1979 г., детский, комедия, DVDRip] piratbit.pw

Приключения маленького папы через торрент piratbit.pw

Размер: 714 MB | Добавлен: 8 лет 3 мес. назад | Торрент скачан:15 раз
Скачать  

17-06-2012 14:00 Приключения маленького папы Скачать торрент  

Приключения маленького папы

Год выпуска: 1979
Страна: СССР
Жанр: детский, комедия
Продолжительность: 01:02:03
Перевод: Не требуется

Режиссер: Дмитрий Крупко
Продюссер: Виталий Голубев



В ролях: Валентин Юцкевич, Александр Демьяненко, Нина Зоткина, Владимир Герасимов, Мария Барабанова, Татьяна Бедова, Александр Лебедев, Юрий Плесневич, Андрей Кронштатов, Ольга Попова

Описание: Фильм построен как рассказ девочки о своем папе, о том, что с ним происходило, когда он тоже был маленьким, и как он становился взрослым. Она представляет: если бы папа был сейчас её ровесником… Какие замечательные приключения ждали бы их…

Качество: DVDRip
Формат: AVI
Видео кодек: XviD
Аудио кодек: MP3
Видео: 720x544 (1.32:1), 25 fps, XviD MPEG-4 ~1403 kbps avg, 0.14 bit/pixel
Аудио#1: 48 kHz, MPEG Layer 3, 2 ch, ~192.00 kbps avg



Общее
Полное имя : F:\Закачки\Priklucheniy.Malenjkogo.Papui.1979.DVDRip.XviD.avi
Формат : AVI
Формат/Информация : Audio Video Interleave
Размер файла : 714 Мбайт
Продолжительность : 1 ч. 2 м.
Общий поток : 1610 Кбит/сек
Программа кодирования : Lavf52.39.1

Видео
Идентификатор : 0
Формат : xvid
Идентификатор кодека : xvid
Продолжительность : 1 ч. 2 м.
Битрейт : 1405 Кбит/сек
Ширина : 720 пикселей
Высота : 544 пикселя
Соотношение сторон : 4:3
Частота кадров : 25,000 кадров/сек
Бит/(Пиксели*Кадры) : 0.143
Размер потока : 624 Мбайт (87%)

Аудио
Идентификатор : 1
Формат : MPEG Audio
Версия формата : Version 1
Профиль формата : Layer 3
Режим : Joint stereo
Расширение режима : MS Stereo
Идентификатор кодека : 55
Идентификатор кодека/Подсказка : MP3
Продолжительность : 1 ч. 2 м.
Вид битрейта : Постоянный
Битрейт : 192 Кбит/сек
Каналы : 2 канала
Частота : 48,0 КГц
Метод сжатия : С потерями
Размер потока : 85,2 Мбайт (12%)
Выравнивание : Соединение по промежуткам
Продолжительность промежутка : 24 мс. (0,60 видеокадр)
Время предзагрузки промежутка : 24 мс.
Библиотека кодирования : LAME3.96.1

piratbit.pw



Скачать Приключения маленького папы через торрент http://i39.fastpic.ru/big/2012/0617/5c/2b2716c0d436caefaf50f4dd4277fb5c.jpg Скачать фильм Приключения маленького папы через торрент бесплантно в хорошем качестве Описание: Фильм построен как рассказ девочки о своем папе, о том, что с ним происходило, когда он тоже был маленьким, и как он становился ... 10 10 2
Info! Золотая раздача, скачанное не засчитывается.
Торрент: Зарегистрирован [2012-06-17 14:00] · скачан: 15 раз
Статус: √ проверено
Размер: 714 MB
Как cкачать? Как скачать Приключения маленького папы через торрент | qTorrent

28-11-2019 20:33  

Отключить всю рекламу на сайте

    Дорогой пользователь! Огромная просьба, поблагодарите релизера, оцените раздачу и оставьте свои комментарий, если Вы скачали Приключения маленького папы через торрент бесплатно! Внесите свою лепту в развитие PiratBit!
    Комментировать посты могут только пользователи прошедшие не сложную регистрацию
    Показать сообщения:    

    Приключения маленького папы через торрент
    Скачать бесплатно Приключения маленького папы
    Приключения маленького папы скачать торрент
    Приключения маленького папы смотреть онлайн
    Cкачать фильм Приключения маленького папы бесплатно
    Приключения маленького папы скачать торрент в хорошем качестве
    Приключения маленького папы смотреть онлайн бесплатно в хорошем качестве


    Вы не можете начинать темы
    Вы не можете отвечать на сообщения
    Вы не можете редактировать свои сообщения
    Вы не можете удалять свои сообщения
    Вы не можете голосовать в опросах
    Вы не можете прикреплять файлы к сообщениям
    Вы можете скачивать файлы