Marvel's Avengers Deluxe Edition (супер цена) 159р. Внимание количество ограничено!!!

2 сезон

iTunes

iTunes

1

iTunes

iTunes

iTunes

WEBRip

iTunes

30
pack

Новость дня

ВАЖНО

!!Акция!!

Alien_RageХит недели

RePack

Horizon Zero Dawn

ИГРА 18+

pack

RePack

jed

!!Акция!!

Alien_Rage

RePack

fifa19

RePack

Assassins Creed: Odyssey

RePack

NEED FOR SPEED™ PAYBACK

4 сезон

9 сезон

Бесстыжие 9 сезон

Все сериалы

все сериалы на PB.wtf

RePack

FAR CRY 5
  

Ледяная внучка (Борис Рыцарев) [1980 г., Сказка, детский, фэнтези, DVDRip] piratbit.pw

Ледяная внучка через торрент piratbit.pw

Размер: 1.37 GB | Добавлен: 8 лет 3 мес. назад | Торрент скачан:22 раза
Скачать  

17-06-2012 13:35 Ледяная внучка Скачать торрент  

Ледяная внучка

Год выпуска: 1980
Страна: СССР
Жанр: Сказка, детский, фэнтези
Продолжительность: 01:10:10
Перевод: Не требуется

Режиссер: Борис Рыцарев

Премьера в мире: Ледяная внучка

IMDB 6.40 (16)


В ролях: Светлана Орлова, Андрей Градов, Людмила Шагалова, Борис Сабуров, Альберт Филозов, Валерий Долженков, Ольга Григорьева, Владимир Никитин, Владимир Дружников, Николай Аверюшкин

Описание: Фильм-сказка по мотивам русской народной сказки о Снегурочке. Полюбился ей деревенский гончар — и захотела она стать обыкновенной девушкой и выйти за него замуж. Но счастью влюбленных мешает коварный обман князя…

Качество: DVDRip
Формат: AVI
Видео кодек: DivX
Аудио кодек: AC3
Видео: 720x544 (1.32:1), 25 fps, DivX Codec 6.8.5/6.9.1 ~2397 kbps avg, 0.24 bit/pixel
Аудио#1: 48 kHz, AC3 Dolby Digital, 3/2 (L,C,R,l,r) + LFE ch, ~384 kbps



Общее
Полное имя : F:\Закачки\Ledjanaja.Vnuchka.1980.DVDRip.avi
Формат : AVI
Формат/Информация : Audio Video Interleave
Размер файла : 1,37 Гбайт
Продолжительность : 1 ч. 10 м.
Общий поток : 2791 Кбит/сек
Библиотека кодирования : VirtualDub build 32817/release

Видео
Идентификатор : 0
Формат : MPEG-4 Visual
Параметр BVOP формата : 1
Параметр QPel формата : Нет
Параметр GMC формата : Без точки перехода
Параметр матрицы формата : Default (H.263)
Режим смешивания : Сжатый битовый поток
Идентификатор кодека : DX50
Идентификатор кодека/Подсказка : DivX 5
Продолжительность : 1 ч. 10 м.
Битрейт : 2397 Кбит/сек
Ширина : 720 пикселей
Высота : 544 пикселя
Соотношение сторон : 4:3
Частота кадров : 25,000 кадров/сек
Цветовое пространство : YUV
Субдискретизация насыщенности : 4:2:0
Битовая глубина : 8 бит
Тип развёртки : Прогрессивная
Метод сжатия : С потерями
Бит/(Пиксели*Кадры) : 0.245
Размер потока : 1,18 Гбайт (86%)
Библиотека кодирования : DivX 6.8.5 (UTC 2009-08-20)

Аудио
Идентификатор : 1
Формат : AC-3
Формат/Информация : Audio Coding 3
Расширение режима : CM (complete main)
Параметр Endianness формата : Big
Идентификатор кодека : 2000
Продолжительность : 1 ч. 10 м.
Вид битрейта : Постоянный
Битрейт : 384 Кбит/сек
Каналы : 6 каналов
Расположение каналов : Front: L C R, Side: L R, LFE
Частота : 48,0 КГц
Битовая глубина : 16 бит
Метод сжатия : С потерями
Размер потока : 193 Мбайт (14%)
Выравнивание : Разделение по промежуткам
Продолжительность промежутка : 40 мс. (1,00 видеокадр)
Время предзагрузки промежутка : 500 мс.

piratbit.pw



Скачать Ледяная внучка через торрент http://i39.fastpic.ru/big/2012/0617/12/33398130bd8b37344c49693d07616412.jpg Скачать фильм Ледяная внучка через торрент бесплантно в хорошем качестве Описание: Фильм-сказка по мотивам русской народной сказки о Снегурочке. Полюбился ей деревенский гончар — и захотела она стать обыкновенной ... 10 10 3
Info! Золотая раздача, скачанное не засчитывается.
Торрент: Зарегистрирован [2012-06-17 13:35] · скачан: 22 раз
Статус: √ проверено
Размер: 1.37 GB
Как cкачать? Как скачать Ледяная внучка через торрент | qTorrent

% Раздел Тема Автор DL S | L
Детские отечественные фильмы [ 1.37 GB ] Ледяная внучка [1980 сказка DVDRip] -=Cherry=- Скачать
1 | 0

28-11-2019 20:33  

Отключить всю рекламу на сайте

17-06-2012 13:48 Ледяная внучка Скачать торрент  

повтор!piratbit.pw



    Дорогой пользователь! Огромная просьба, поблагодарите релизера, оцените раздачу и оставьте свои комментарий, если Вы скачали Ледяная внучка через торрент бесплатно! Внесите свою лепту в развитие PiratBit!
    Комментировать посты могут только пользователи прошедшие не сложную регистрацию
    Показать сообщения:    

    Ледяная внучка через торрент
    Скачать бесплатно Ледяная внучка
    Ледяная внучка скачать торрент
    Ледяная внучка смотреть онлайн
    Cкачать фильм Ледяная внучка бесплатно
    Ледяная внучка скачать торрент в хорошем качестве
    Ледяная внучка смотреть онлайн бесплатно в хорошем качестве


    Вы не можете начинать темы
    Вы не можете отвечать на сообщения
    Вы не можете редактировать свои сообщения
    Вы не можете удалять свои сообщения
    Вы не можете голосовать в опросах
    Вы не можете прикреплять файлы к сообщениям
    Вы можете скачивать файлы