Ссылка на приватное зеркало нашего сайта всего за 1$. Внимание количество ограничено!!!

2 сезон

iTunes

iTunes

1

iTunes

iTunes

iTunes

WEBRip

iTunes

30
pack

Вам бонус

ВАЖНО

!!Акция!!

Alien_RageХит недели

RePack

Horizon Zero Dawn

ИГРА 18+

pack

RePack

jed

!!Акция!!

Alien_Rage

RePack

fifa19

RePack

Assassins Creed: Odyssey

RePack

NEED FOR SPEED™ PAYBACK

4 сезон

9 сезон

Бесстыжие 9 сезон

Все сериалы

все сериалы на PB.wtf

RePack

FAR CRY 5
  

Летающий корабль (Артур Войтецкий, Михаил Юферов) [1960 г., фэнтези, DVDRip] piratbit.pw

Летающий корабль через торрент piratbit.pw

Размер: 1.37 GB | Добавлен: 8 лет 3 мес. назад | Торрент скачан:11 раз
Скачать  

17-06-2012 13:21 Летающий корабль Скачать торрент  

Летающий корабль

Год выпуска: 1960
Страна: СССР
Жанр: Сказка, фэнтези
Продолжительность: 01:03:42
Перевод: Не требуется

Режиссер: Артур Войтецкий, Михаил Юферов

Премьера в мире: 31 августа 1962

IMDB 5.70 (5)


В ролях: Владимир Дальский, Сузанна Юрщенко, Р. Клявин, Ада Роговцева, Людмила Татьянчук, Игорь Ершов, Мария Капнист, Дмитрий Гнатюк, Лариса Гордейчик

Описание: В краю привольном жил богатырь Котигорошко. Была у него сестричка Аленка. Но случилось несчастье — украл Аленку страшный Змей и унес в свое подземное царство. Решил Котигорошко освободить сестру и отправился на летающем корабле в дальний путь...

Качество: DVDRip
Формат: AVI
Видео кодек: XviD
Аудио кодек: AC3
Видео: 720x544 (1.32:1), 23.976 fps, XviD build 50 ~2675 kbps avg, 0.28 bit/pixel
Аудио#1: Русский: 48 kHz, AC3 Dolby Digital, 3/2 (L,C,R,l,r) + LFE ch, ~384 kbps



Общее
Полное имя : F:\Закачки\Letajuscij.Korablj.1960.DVDRip.avi
Формат : AVI
Формат/Информация : Audio Video Interleave
Размер файла : 1,37 Гбайт
Продолжительность : 1 ч. 3 м.
Общий поток : 3069 Кбит/сек
Режиссёр : Rip By DJ_Zum Для сайта Generalfilm.ru
Программа кодирования : VirtualDubMod 1.5.10.3 | www.virtualdub-fr.org || (build 2550/release)

Видео
Идентификатор : 0
Формат : MPEG-4 Visual
Профиль формата : Advanced Simple@L5
Параметр BVOP формата : 2
Параметр QPel формата : Нет
Параметр GMC формата : Без точки перехода
Параметр матрицы формата : Default (H.263)
Идентификатор кодека : XVID
Идентификатор кодека/Подсказка : XviD
Продолжительность : 1 ч. 3 м.
Битрейт : 2676 Кбит/сек
Ширина : 720 пикселей
Высота : 544 пикселя
Соотношение сторон : 4:3
Частота кадров : 23,976 кадра/сек
Цветовое пространство : YUV
Субдискретизация насыщенности : 4:2:0
Битовая глубина : 8 бит
Тип развёртки : Прогрессивная
Метод сжатия : С потерями
Бит/(Пиксели*Кадры) : 0.285
Размер потока : 1,19 Гбайт (87%)
Библиотека кодирования : XviD 1.2.1 (UTC 2008-12-04)

Аудио
Идентификатор : 1
Формат : AC-3
Формат/Информация : Audio Coding 3
Расширение режима : CM (complete main)
Параметр Endianness формата : Big
Идентификатор кодека : 2000
Продолжительность : 1 ч. 3 м.
Вид битрейта : Постоянный
Битрейт : 384 Кбит/сек
Каналы : 6 каналов
Расположение каналов : Front: L C R, Side: L R, LFE
Частота : 48,0 КГц
Битовая глубина : 16 бит
Метод сжатия : С потерями
Размер потока : 175 Мбайт (13%)
Выравнивание : Разделение по промежуткам
Продолжительность промежутка : 42 мс. (1,00 видеокадр)
Время предзагрузки промежутка : 500 мс.

piratbit.pw



Скачать Летающий корабль через торрент http://i39.fastpic.ru/big/2012/0617/53/619f27f12e304a2f38353cf67b4a5153.jpg Скачать фильм Летающий корабль через торрент бесплантно в хорошем качестве Описание: В краю привольном жил богатырь Котигорошко. Была у него сестричка Аленка. Но случилось несчастье — украл Аленку страшный Змей и ... 10 10 2
Info! Золотая раздача, скачанное не засчитывается.
Торрент: Зарегистрирован [2012-06-17 13:21] · скачан: 11 раз
Статус: √ проверено
Размер: 1.37 GB
Как cкачать? Как скачать Летающий корабль через торрент | qTorrent

% Раздел Тема Автор DL S | L
Детские отечественные фильмы [ 745 MB ] Летающий корабль [1960 СССР сказка DVDRip-AVC от AVP Studio] AVP Studio Скачать
1 | 0
Детские отечественные фильмы [ 743 MB ] Летающий корабль [1960 СССР сказка DVDRip от AVP Studio] AVP Studio Скачать
1 | 0
Аниме [DVDrip, WEB-DLRip, HDrip] [ 894 MB ] Летающий корабль-призрак / Sora tobu yûreisen [1969 аниме мультфильм DVDRip DUB лицензия] jump88 Скачать
1 | 0

28-11-2019 20:33  

Отключить всю рекламу на сайте

17-06-2012 13:35 Летающий корабль Скачать торрент  

Скрин на котором стоят бутылки. На одной из них, на бело, надпись : БЛЕКОТА
ЧТО ЭТО???????????7piratbit.pw



17-06-2012 14:04 Летающий корабль Скачать торрент  

KALYANO писал(а):

Скрин на котором стоят бутылки. На одной из них, на бело, надпись : БЛЕКОТА
ЧТО ЭТО???????????7

Ну для того чтобы это выяснить надо в СКАЗКУ попасть piratbit.pw



17-06-2012 14:46 Летающий корабль Скачать торрент  

Жанр:Сказка,Фэнтази (спасибо,поржал)piratbit.pw



    Дорогой пользователь! Огромная просьба, поблагодарите релизера, оцените раздачу и оставьте свои комментарий, если Вы скачали Летающий корабль через торрент бесплатно! Внесите свою лепту в развитие PiratBit!
    Комментировать посты могут только пользователи прошедшие не сложную регистрацию
    Показать сообщения:    

    Летающий корабль через торрент
    Скачать бесплатно Летающий корабль
    Летающий корабль скачать торрент
    Летающий корабль смотреть онлайн
    Cкачать фильм Летающий корабль бесплатно
    Летающий корабль скачать торрент в хорошем качестве
    Летающий корабль смотреть онлайн бесплатно в хорошем качестве


    Вы не можете начинать темы
    Вы не можете отвечать на сообщения
    Вы не можете редактировать свои сообщения
    Вы не можете удалять свои сообщения
    Вы не можете голосовать в опросах
    Вы не можете прикреплять файлы к сообщениям
    Вы можете скачивать файлы