Ссылка на приватное зеркало нашего сайта всего за 1$. Внимание количество ограничено!!!

2 сезон

iTunes

iTunes

1

iTunes

iTunes

iTunes

WEBRip

iTunes

30
pack

Вам бонус

ВАЖНО

!!Акция!!

Alien_RageХит недели

RePack

Horizon Zero Dawn

ИГРА 18+

pack

RePack

jed

!!Акция!!

Alien_Rage

RePack

fifa19

RePack

Assassins Creed: Odyssey

RePack

NEED FOR SPEED™ PAYBACK

4 сезон

9 сезон

Бесстыжие 9 сезон

Все сериалы

все сериалы на PB.wtf

RePack

FAR CRY 5
  

Мама (Элизабета Бостан) [1976 г., мюзикл, фэнтези, семейный, DVDRip, Оригинал] piratbit.pw

Мама через торрент piratbit.pw

Размер: 1.37 GB | Добавлен: 8 лет 3 мес. назад | Торрент скачан:2 раза
Скачать  

16-06-2012 13:52 Мама Скачать торрент  

Мама

Год выпуска: 1976
Страна: Франция, СССР, Румыния
Жанр: мюзикл, фэнтези, семейный
Продолжительность: 01:23:10
Перевод: Оригинал

Режиссер: Элизабета Бостан
Сценарий: Юрий Энтин, Василика Истрате

Премьера в мире: 17 октября 1977

IMDb: 7.30 (665)
КиноПоиск : 7.761 (1 195)


В ролях: Людмила Гурченко, Михаил Боярский, Олег Попов, Савелий Крамаров, Валентин Манохин, Джордж Михаица, Флориан Питиш, Вера Ивлева, Евгений Герчаков, Наталья Крачковская

Описание: Остроумная музыкальная версия всем известной истории про Серого Волка, семерых козлят (в фильме их пятеро) и их очаровательную героическую Маму.

Доп. информация:
релиз на DVD 1 апреля 2011, «Парадиз Медиа»

Качество: DVDRip
Формат: AVI
Видео кодек: DivX
Аудио кодек: AC3
Видео: 2150 Кбит/сек, 704 пикселя х 320 пикселей, 25,000 кадров/сек, Бит/Пиксели : 0.382
Аудио#1: 192 Кбит/сек, 2 канала, 48,0 КГц
Формат : AVI
Формат/Информация : Audio Video Interleave
Размер файла : 1,37 Гбайт
Продолжительность : 1 ч. 23 м.
Общий поток : 2352 Кбит/сек
Программа кодирования : VirtualDubModRus 1.5.10.2 (build 2542/release)
Библиотека кодирования : VirtualDubMod build 2542/release

Видео
Идентификатор : 0
Формат : MPEG-4 Visual
Параметр BVOP формата : Да
Параметр QPel формата : Нет
Параметр GMC формата : Без точки перехода
Параметр матрицы формата : Default (H.263)
Идентификатор кодека : DX50
Идентификатор кодека/Подсказка : DivX 5
Продолжительность : 1 ч. 23 м.
Битрейт : 2150 Кбит/сек
Ширина : 704 пикселя
Высота : 320 пикселей
Соотношение сторон : 2,2:1
Частота кадров : 25,000 кадров/сек
Цветовое пространство : YUV
Субдискретизация насыщенности : 4:2:0
Битовая глубина : 8 бит
Тип развёртки : Прогрессивная
Метод сжатия : С потерями
Бит/(Пиксели*Кадры) : 0.382
Размер потока : 1,25 Гбайт (91%)
Библиотека кодирования : DivX 6.8.3-6.8.4 (UTC 2008-06-07)

Аудио
Идентификатор : 1
Формат : AC-3
Формат/Информация : Audio Coding 3
Расширение режима : CM (complete main)
Параметр Endianness формата : Big
Идентификатор кодека : 2000
Продолжительность : 1 ч. 23 м.
Вид битрейта : Постоянный
Битрейт : 192 Кбит/сек
Каналы : 2 канала
Расположение каналов : Front: L R
Частота : 48,0 КГц
Битовая глубина : 16 бит
Метод сжатия : С потерями
Размер потока : 114 Мбайт (8%)
Выравнивание : Соединение по промежуткам
Продолжительность промежутка : 40 мс. (1,00 видеокадр)
Время предзагрузки промежутка : 512 мс.

piratbit.pw



Скачать Мама через торрент http://pic.kartinco.top/images/1/8w66yicl25.jpg Скачать фильм Мама через торрент бесплантно в хорошем качестве Описание: Остроумная музыкальная всем известной истории про Серого Волка, семерых козлят (в фильме их пятеро) и их очаровательную ... 10 10 3
Info! Золотая раздача, скачанное не засчитывается.
Торрент: Зарегистрирован [2012-06-16 13:52] · скачан: 2 раз
Статус: √ проверено
Размер: 1.37 GB
Как cкачать? Как скачать Мама через торрент | qTorrent

% Раздел Тема Автор DL S | L
Зарубежные сериалы [ 6.29 GB ] Как я встретил вашу маму / How I Met Your Mother / Сезон: 1 / Серии: 1-22 из 22 [2005 DVDRip] Cherepp Скачать
1 | 1
Зарубежные сериалы [ 17.38 GB ] Как я встретил вашу маму / How I Met Your Mother / Сезон: 7 / Серии: 01-24 [2011 WEB-DL 720p] wekotila Скачать
1 | 0
Зарубежные сериалы [ 38.05 GB ] Как я встретил вашу маму / How I Met Your Mother [2005 HDRip] toninfs Скачать
1 | 0
Зарубежные сериалы [ 2.56 GB ] Как Я Встретил Вашу Маму / How I Met Your Mother / [2005 Mело Kомедия DVDRip Пиратка] Reshkut Скачать
1 | 1
Зарубежные сериалы [ 2.6 GB ] Как Я Встретил Вашу Маму / How I Met Your Mother / [2006 DVDRip Пиратка] Reshkut Скачать
1 | 0
Наши Мультфильмы (DVD) [ 3.01 GB ] Моя мама волшебница. Сборник мультфильмов [1946-1989 Мультфильмы рисованные кукольные DVD5] Aleg333ator Скачать
1 | 0
Гонзо [ 1.37 GB ] У Мамы Есть Сиськи 12 / Mommy Got Boobs 12 [2011 All Sex Big Tits MILF / Cougar DVDRip] Shmel Скачать
1 | 0

28-11-2019 20:33  

Отключить всю рекламу на сайте

16-06-2012 14:01 Мама Скачать торрент  

кэп, спасибо за фильм-сказку моего детства! Очень добрый фильм и с известными актёрами для детей всех поколений!!!)))piratbit.pw



    Дорогой пользователь! Огромная просьба, поблагодарите релизера, оцените раздачу и оставьте свои комментарий, если Вы скачали Мама через торрент бесплатно! Внесите свою лепту в развитие PiratBit!
    Комментировать посты могут только пользователи прошедшие не сложную регистрацию
    Показать сообщения:    

    Мама через торрент
    Скачать бесплатно Мама
    Мама скачать торрент
    Мама смотреть онлайн
    Cкачать фильм Мама бесплатно
    Мама скачать торрент в хорошем качестве
    Мама смотреть онлайн бесплатно в хорошем качестве


    Вы не можете начинать темы
    Вы не можете отвечать на сообщения
    Вы не можете редактировать свои сообщения
    Вы не можете удалять свои сообщения
    Вы не можете голосовать в опросах
    Вы не можете прикреплять файлы к сообщениям
    Вы можете скачивать файлы