Marvel's Avengers Deluxe Edition (супер цена) 159р. Внимание количество ограничено!!!

2 сезон

iTunes

iTunes

1

iTunes

iTunes

iTunes

WEBRip

iTunes

30
pack

Новость дня

ВАЖНО

!!Акция!!

Alien_RageХит недели

RePack

Horizon Zero Dawn

ИГРА 18+

pack

RePack

jed

!!Акция!!

Alien_Rage

RePack

fifa19

RePack

Assassins Creed: Odyssey

RePack

NEED FOR SPEED™ PAYBACK

4 сезон

9 сезон

Бесстыжие 9 сезон

Все сериалы

все сериалы на PB.wtf

RePack

FAR CRY 5
  

Огонь, вода и ... медные трубы (Александр Роу) [1967 г., мюзикл, мелодрама, семейный, DVDRip] piratbit.pw

Огонь, вода и ... медные трубы через торрент piratbit.pw

Раздают: 1 [ 0 KB/s ]
Размер: 1.36 GB | Добавлен: 8 лет 3 мес. назад | Торрент скачан:166 раз
Скачать  

15-06-2012 07:50 Огонь, вода и ... медные трубы Скачать торрент  

Огонь, вода и ... медные трубы

Год выпуска: 1967
Страна: СССР
Жанр: мюзикл, мелодрама, семейный
Продолжительность: 01:20:58
Перевод: Не требуется

Режиссер: Александр Роу
Продюссер: Роман Конбрандт

Премьера в мире: 13 декабря 1968

IMDB 6.80 (174)


В ролях: Наталья Седых, Алексей Катышев, Георгий Милляр, Вера Алтайская, Лев Потемкин, Александр Хвыля, Анатолий Кубацкий, Леонид Харитонов, Муза Крепкогорская, Алексей Смирнов

Описание: Герой фильма Вася как-то отправился в лес, чтобы жечь уголь. И там, на полянке, ему повстречалась Аленушка, которая пасла своего козленка. Молодые люди влюбились друг в друга с первого взгляда. Но слуги Кащея Бессмертного похитили девушку прямо на глазах у Васи. В поисках возлюбленной Вася в буквальном смысле проходит сквозь огонь и воду. Но труднее всего устоять перед медными трубами, перед сверкающим сиянием славы…

Доп. информация: Есть такая поговорка: "пройти огонь, воду и медные трубы". Это означает - пройти жизненные испытания, набраться ума-разума, повидать в жизни всякое, закалить свою волю.

Качество: DVDRip
Формат: AVI
Видео кодек: XviD
Аудио кодек: AC3
Видео: 704x300 (2.35:1), 23.976 fps, XviD MPEG-4 ~1954 kbps avg, 0.39 bit/pixel
Аудио#1: Русский: 48 kHz, AC3 Dolby Digital, 3/2 (L,C,R,l,r) + LFE ch, ~448 kbps



Общее
Полное имя : F:\Закачки\Ogon.Voda.I.Mednye.Truby.1967.DVDRip.avi
Формат : AVI
Формат/Информация : Audio Video Interleave
Размер файла : 1,36 Гбайт
Продолжительность : 1 ч. 20 м.
Общий поток : 2412 Кбит/сек
Программа кодирования : VirtualDubMod 1.5.10.2 (build 2540/release)
Библиотека кодирования : VirtualDubMod build 2540/release

Видео
Идентификатор : 0
Формат : MPEG-4 Visual
Профиль формата : Advanced Simple@L5
Параметр BVOP формата : 1
Параметр QPel формата : Нет
Параметр GMC формата : Без точки перехода
Параметр матрицы формата : Default (MPEG)
Режим смешивания : Сжатый битовый поток
Идентификатор кодека : XVID
Идентификатор кодека/Подсказка : XviD
Продолжительность : 1 ч. 20 м.
Битрейт : 1955 Кбит/сек
Ширина : 704 пикселя
Высота : 300 пикселей
Соотношение сторон : 2,35:1
Частота кадров : 23,976 кадра/сек
Цветовое пространство : YUV
Субдискретизация насыщенности : 4:2:0
Битовая глубина : 8 бит
Тип развёртки : Прогрессивная
Метод сжатия : С потерями
Бит/(Пиксели*Кадры) : 0.386
Размер потока : 1,11 Гбайт (81%)
Библиотека кодирования : XviD 1.2.0.dev47 (UTC 2006-11-01)

Аудио
Идентификатор : 1
Формат : AC-3
Формат/Информация : Audio Coding 3
Расширение режима : CM (complete main)
Параметр Endianness формата : Big
Идентификатор кодека : 2000
Продолжительность : 1 ч. 20 м.
Вид битрейта : Постоянный
Битрейт : 448 Кбит/сек
Каналы : 6 каналов
Расположение каналов : Front: L C R, Side: L R, LFE
Частота : 48,0 КГц
Битовая глубина : 16 бит
Метод сжатия : С потерями
Размер потока : 259 Мбайт (19%)
Выравнивание : Разделение по промежуткам
Продолжительность промежутка : 42 мс. (1,00 видеокадр)
Время предзагрузки промежутка : 500 мс.

piratbit.pw



Скачать Огонь, вода и ... медные трубы через торрент http://i12.fastpic.ru/big/2010/1113/78/2d48134cff5e3c1be7e103193e5bc478.jpg Скачать фильм Огонь, вода и ... медные трубы через торрент бесплантно в хорошем качестве Описание: Герой фильма Вася как-то отправился в лес, чтобы жечь уголь. И там, на полянке, ему повстречалась Аленушка, которая пасла своего ... 9.8 10 6
Info! Золотая раздача, скачанное не засчитывается.
Торрент: Зарегистрирован [2012-06-15 07:50] · скачан: 166 раз
Статус: √ проверено
Размер: 1.36 GB
Как cкачать? Как скачать Огонь, вода и ... медные трубы через торрент | qTorrent

% Раздел Тема Автор DL S | L
Детские отечественные фильмы [ 688 MB ] Огонь вода и ... медные трубы [1967 мюзикл DVDRip] VORLKED Скачать
1 | 0


Последний раз редактировалось: DJERG (2012-06-15 08:25), всего редактировалось 1 раз

28-11-2019 20:33  

Отключить всю рекламу на сайте

15-06-2012 08:24 Огонь, вода и ... медные трубы Скачать торрент  

качество, судя по скринам - отличноеpiratbit.pw



15-06-2012 13:19 Огонь, вода и ... медные трубы Скачать торрент  

sergunka писал(а):

качество, судя по скринам - отличное

Согласна и сказка тоже. Раздающему респект!!!piratbit.pw



15-06-2012 13:29 Огонь, вода и ... медные трубы Скачать торрент  

-=Cherry=- писал(а):

sergunka писал(а):

качество, судя по скринам - отличное

Согласна и сказка тоже. Раздающему респект!!!

спасибо piratbit.pw



11-11-2013 18:46 Огонь, вода и ... медные трубы Скачать торрент  

СПАСИБО!Всё СУПЕР!piratbit.pw



    Дорогой пользователь! Огромная просьба, поблагодарите релизера, оцените раздачу и оставьте свои комментарий, если Вы скачали Огонь, вода и ... медные трубы через торрент бесплатно! Внесите свою лепту в развитие PiratBit!
    Комментировать посты могут только пользователи прошедшие не сложную регистрацию
    Показать сообщения:    

    Огонь, вода и ... медные трубы через торрент
    Скачать бесплатно Огонь, вода и ... медные трубы
    Огонь, вода и ... медные трубы скачать торрент
    Огонь, вода и ... медные трубы смотреть онлайн
    Cкачать фильм Огонь, вода и ... медные трубы бесплатно
    Огонь, вода и ... медные трубы скачать торрент в хорошем качестве
    Огонь, вода и ... медные трубы смотреть онлайн бесплатно в хорошем качестве


    Вы не можете начинать темы
    Вы не можете отвечать на сообщения
    Вы не можете редактировать свои сообщения
    Вы не можете удалять свои сообщения
    Вы не можете голосовать в опросах
    Вы не можете прикреплять файлы к сообщениям
    Вы можете скачивать файлы