1 сезон

3 сезон

iTunes

1

iTunes

DUB Netflix

iTunes

13

1 сезон

RePack

30

Deluxe

pack

Легкие деньги

ВАЖНО

ИГРА 18+

pack

RePack

MK11

RePack

jed

RePack

fifa19

RePack

RDR2

RePack

NEED FOR SPEED™ PAYBACK

4 сезон

9 сезон

Бесстыжие 9 сезон

Все сериалы

все сериалы на PB.wtf

RePack

FAR CRY 5

Anonymous, доброе утро, мы не успеваем до 1 числа собрать деньги на оплату серверов, помогите нам пожалуйста в это трудное время. В качестве благодарности мы отключим Вам всю рекламу на сайте (укажите свой ник в строку Ваше имя)!

×
  
Magnet ссылка

Путешествие к Центру Земли / Journey to the Center of the Earth (Эрик Бревиг / Eric Brevig) [2008, США, фантастика, приключения, HDRip] DUB piratbit.pw

Путешествие к Центру Земли через торрент piratbit.pw

Размер: 742 MB | Добавлен: 9 лет назад | Торрент скачан:178 раз
Скачать  

15-06-2012 06:21 Путешествие к Центру Земли Скачать торрент  

Путешествие к Центру Земли / Journey to the Center of the Earth

Страна: США
Жанр: фантастика, приключения
Год выпуска: 2008
Продолжительность: 01:32:34

Перевод: Профессиональный (дублированный)
Cубтитры: нет

Режиссер: Эрик Бревиг / Eric Brevig

В ролях: Брендан Фрейзер, Джош Хатчерсон, Анита Брием, Сет Майерс, Жан Мишель Паре, Джейн Вилер, Фрэнк Фонтейн, Джанкарло Кальтабиано, Каньехтио Хорн, Гарт Гилкер

Описание: Экранизация одноименного романа Жюль Верна. Действие перенесено в день нынешний. Чудаковатый профессор Андерсон (Брендан Фрейзер), поднятый на смех коллегами за свои эксцентричные теории, путешествует с племянником по Исландии, где находит пещеру, ведущую в недра Земли. В недрах перед путешественниками открывается удивительный подземный мир, населенный опасными и странными созданиями...

Качество видео: HDRip
Формат видео: AVI
Видео кодек: XviD
Аудио кодек: MP3
Видео: 656x368 (1.78:1), 23.976 fps, XviD build 50 ~983 kbps avg, 0.17 bit/pixel
Аудио: 48 kHz, MPEG Layer 3, 2 ch, ~128.00 kbps avg
General
Complete name : I:\фильмы\Journey.to.the.Center.of.the.Earth.2008.hdrip_[745]_[teko].avi
Format : AVI
Format/Info : Audio Video Interleave
File size : 742 MiB
Duration : 1h 32mn
Overall bit rate : 1 121 Kbps
Writing application : VirtualDubMod 1.5.10.2 (build 2540/release)
Writing library : VirtualDubMod build 2540/release

Video
ID : 0
Format : MPEG-4 Visual
Format profile : Advanced Simple@L5
Format settings, BVOP : 1
Format settings, QPel : No
Format settings, GMC : No warppoints
Format settings, Matrix : Default (MPEG)
Codec ID : XVID
Codec ID/Hint : XviD
Duration : 1h 32mn
Bit rate : 984 Kbps
Width : 656 pixels
Height : 368 pixels
Display aspect ratio : 16:9
Frame rate : 23.976 fps
Color space : YUV
Chroma subsampling : 4:2:0
Bit depth : 8 bits
Scan type : Progressive
Compression mode : Lossy
Bits/(Pixel*Frame) : 0.170
Stream size : 651 MiB (88%)
Writing library : XviD 1.2.1 (UTC 2008-12-04)

Audio
ID : 1
Format : MPEG Audio
Format version : Version 1
Format profile : Layer 3
Codec ID : 55
Codec ID/Hint : MP3
Duration : 1h 32mn
Bit rate mode : Constant
Bit rate : 128 Kbps
Channel(s) : 2 channels
Sampling rate : 48.0 KHz
Compression mode : Lossy
Stream size : 84.8 MiB (11%)
Alignment : Aligned on interleaves
Interleave, duration : 42 ms (1.00 video frame)
Interleave, preload duration : 504 ms
Writing library : LAME3.98r
Encoding settings : -m s -V 4 -q 2 -lowpass 17 -b 128
piratbit.pw



Скачать Путешествие к Центру Земли через торрент http://i27.fastpic.ru/big/2011/0904/51/541b0fc7d2bfafe637d9e0bbd69b5951.jpg Скачать фильм Путешествие к Центру Земли через торрент бесплантно в хорошем качестве Описание: Экранизация одноименного романа Жюль Верна. Действие перенесено в день нынешний. Чудаковатый профессор Андерсон (Брендан ... 10 10 2
Info! Золотая раздача, скачанное не засчитывается.
Торрент: Зарегистрирован [2012-06-15 06:21] · скачан: 178 раз
Статус: √ проверено
Размер: 742 MB
Как cкачать? Как скачать Путешествие к Центру Земли через торрент | UTorrent

% Раздел Тема Автор DL S | L
Фильмы [HD 720p, 1080p] (Хороший звук DUB, MVO) [ 4.44 GB ] Путешествие к Центру Земли / Journey to the Center of the Earth [2008 BDRip-HEVC 1080p ] DUB [] bober100 Скачать
1 | 0

28-11-2019 20:33  

Отключить всю рекламу на сайте

15-06-2012 06:28 Путешествие к Центру Земли Скачать торрент  

Полного источника не было: Никогда.......веселоpiratbit.pw



15-06-2012 06:41 Путешествие к Центру Земли Скачать торрент  

mikoda95
Сейчас все будет)piratbit.pw



26-07-2012 10:48 Путешествие к Центру Земли Скачать торрент  

дайте скорость пожалуйста!!!piratbit.pw



    Дорогой пользователь! Огромная просьба, поблагодарите релизера, оцените раздачу и оставьте свои комментарий, если Вы скачали Путешествие к Центру Земли через торрент бесплатно! Внесите свою лепту в развитие PiratBit!
    Комментировать посты могут только пользователи прошедшие не сложную регистрацию
    Показать сообщения:    

    Путешествие к Центру Земли через торрент
    Скачать бесплатно Путешествие к Центру Земли
    Путешествие к Центру Земли скачать торрент
    Путешествие к Центру Земли смотреть онлайн
    Cкачать фильм Путешествие к Центру Земли бесплатно
    Путешествие к Центру Земли скачать торрент в хорошем качестве
    Путешествие к Центру Земли смотреть онлайн бесплатно в хорошем качестве


    Вы не можете начинать темы
    Вы не можете отвечать на сообщения
    Вы не можете редактировать свои сообщения
    Вы не можете удалять свои сообщения
    Вы не можете голосовать в опросах
    Вы не можете прикреплять файлы к сообщениям
    Вы можете скачивать файлы